Welcome Guest ( Log In | Register )

 
Reply to this topicStart new topic
> Pulp - Silent Assassin [demo] (1991), Death Metal
post Apr 15 2018, 01:35:25
Post #1

Подвал
**************
Group: Металариец
Posts: 12,423
Releases: 6991
From: Far East (Khabarovsk)
On Forums: 9 years 7 months
Thanks: 64514 time(s)
Russian Federation


(IMG:http://metalarea.org/images/audiocovers/2018_Apr/acov_tid304679_thumb.jpg)

*Artist: Pulp
*Album: Silent Assassin [demo]
*Year: 1991
*Genre: Death Metal
*Country: United Kingdom (IMG:http://metalarea.org/forum/style_images/flags/United%20Kingdom.png)
*Format: mp3@CBR192kbps
*Size: 31MB

Tracklist:
1. Help The Aged 04:32
2. Inhaling Death 03:38
3. Losing Control 04:50
4. Evil Smells 04:08
5. Dubbed In The Back 05:42
******************************
Total playing time: 22:50

(IMG:http://metalarea.org/images/myspace.png)

Technical info
(IMG:http://metalarea.org/images/spectrogram/2018_Apr/8424d522145f6ad82db69f45173c8075.png)
Input File: 02-Inhaling Death.mp3
Channels : 2
Sample Rate : 44100
Precision : 16-bit
Duration : 00:03:38.69 = 9644185 samples = 16401.7 CDDA sectors
File Size : 5.25M
Bit Rate : 192k
Sample Encoding: MPEG audio (layer I, II or III)
Comments :
Title=Inhaling Death
Artist=Pulp (UK)
Album=Silent Assassin (Demo)
Tracknumber=02
Year=1991
Genre=Death Metal



Register


Go to the top of the page
  Insert nick Quick quote
+Quote Post

Reply to this topicStart new topic
1 User(s) are reading this topic (1 Guests and 0 Anonymous Users)
0 Members:

 



- Lo-Fi Version Support form
Copyrights and abuse reports form
Time is now: 22nd September 2018 - 04:41:44