Welcome Guest ( Log In | Register )

> Pulp - Systems Berserk [demo] (1991), Death Metal
post Apr 15 2018, 01:42:47
Post #1

Подвал
**************
Group: Металариец
Posts: 12,303
Releases: 6936
From: Far East (Khabarovsk)
On Forums: 9 years 6 months
Thanks: 63528 time(s)
Russian Federation


(IMG:http://metalarea.org/images/audiocovers/2018_Apr/acov_tid304680_thumb.jpg)

*Artist: Pulp
*Album: Systems Berserk [demo]
*Year: 1991
*Genre: Death Metal
*Country: United Kingdom (IMG:http://metalarea.org/forum/style_images/flags/United%20Kingdom.png)
*Format: mp3@CBR192kbps
*Size: 35MB

Tracklist:
1. Edge Of Dreams 04:42
2. Parasites Among Us 07:11
3. A Stab In The Back 05:42
4. Leech Infestation 08:13
******************************
Total playing time: 25:48

(IMG:http://metalarea.org/images/myspace.png)

Extended info
pre-Headcage.


Technical info
(IMG:http://metalarea.org/images/spectrogram/2018_Apr/c58143580e488075475dd0e83e8d1df1.png)
Input File: 01-Edge of Dreams.mp3
Channels : 2
Sample Rate : 44100
Precision : 16-bit
Duration : 00:04:42.64 = 12464468 samples = 21198.1 CDDA sectors
File Size : 6.78M
Bit Rate : 192k
Sample Encoding: MPEG audio (layer I, II or III)
Comments :
Title=Edge of Dreams
Artist=Pulp (UK)
Album=Systems Berserk (Demo)
Tracknumber=01
Year=1991
Genre=Death Metal



Register


Go to the top of the page
  Insert nick Quick quote
+Quote Post
 
Start new topic
Replies (1 - 1)
post Apr 15 2018, 14:37:22
Post #2

Два Литра
**
Group: Завсегдатай
Posts: 147
Releases: 0
From: Kiev
On Forums: 9 years 7 months
Thanks: 36 time(s)
Ukraine


pre-Headcage
а я то уже обрадовался что это Джарвис в свободное время митол для души нарезал (IMG:style_emoticons/default/1488.gif)
Go to the top of the page
  Insert nick Quick quote
+Quote Post

Reply to this topicStart new topic
1 User(s) are reading this topic (1 Guests and 0 Anonymous Users)
0 Members:

 



- Lo-Fi Version Support form
Copyrights and abuse reports form
Time is now: 21st August 2018 - 16:37:12