Welcome Guest ( Log In | Register )

 
Reply to this topicStart new topic
> Remnant - Crimson Cemetery (2002), Death Metal
post Apr 15 2018, 01:53:02
Post #1

Подвал
**************
Group: Металариец
Posts: 12,423
Releases: 6991
From: Far East (Khabarovsk)
On Forums: 9 years 7 months
Thanks: 64514 time(s)
Russian Federation


(IMG:http://metalarea.org/images/audiocovers/2018_Apr/acov_tid304681_thumb.JPG)

*Artist: Remnant
*Album: Crimson Cemetery
*Year: 2002
*Genre: Death Metal
*Country: Germany (IMG:http://metalarea.org/forum/style_images/flags/Germany.png)
*Format: mp3@CBR192kbps
*Size: 50MB

Tracklist:
1. Intro / Black Blood 04:23
2. Insane Killing 05:22
3. City On Fire 05:33
4. Apocalyptic VIsions 02:57
5. Graven 03:43
6. Breath Of Death 02:04
7. Dismembered Souls / Selfhate 07:23
8. Crimson Cemetery 04:35
******************************
Total playing time: 36:00

Technical info
(IMG:http://metalarea.org/images/spectrogram/2018_Apr/4efe89550da5ccc1efcf37bedbb5d830.png)
Input File: 01-Intro - Black Blood.mp3
Channels : 2
Sample Rate : 44100
Precision : 16-bit
Duration : 00:04:23.62 = 11625774 samples = 19771.7 CDDA sectors
File Size : 6.33M
Bit Rate : 192k
Sample Encoding: MPEG audio (layer I, II or III)
Comments :
Title=Intro / Black Blood
Artist=Remnant (Ger)
Album=Crimson Cemetery
Tracknumber=01
Year=2002
Genre=Death Metal



Register


Go to the top of the page
  Insert nick Quick quote
+Quote Post

Reply to this topicStart new topic
1 User(s) are reading this topic (1 Guests and 0 Anonymous Users)
0 Members:

 



- Lo-Fi Version Support form
Copyrights and abuse reports form
Time is now: 22nd September 2018 - 04:08:04