Welcome Guest ( Log In | Register )

> Škan - Death Crown (2018), Black/Death Metal
post Apr 15 2018, 04:00:39
Post #1

Правь статус, ####!111
**************
Group: Металариец
Posts: 3,400
Releases: 711
From: Brazil
On Forums: 6 years 10 months
Thanks: 27569 time(s)
Brazil


(IMG:https://metalarea.org/images/audiocovers/2018_Apr/acov_tid304682_thumb.jpg)

*Artist: Škan
*Album: Death Crown
*Year: 2018
*Genre: Black/Death Metal
*Country: United States (IMG:https://metalarea.org/forum/style_images/flags/United%20States.png)
*Format: mp3@CBR320kbps
*Size: 101MB

Tracklist:
1. Initium 01:54
2. Death Wish 03:43
3. A Mort 02:32
4. The Womb 06:03
5. Au Dela 02:16
6. Iron & Blood 06:08
7. Father Qayin 09:42
8. For the Love of Death 11:27
******************************
Total playing time: 43:45



Extended info
Ván Records


Technical info
(IMG:https://metalarea.org/images/spectrogram/2018_Apr/a040f0d75de335978aaa264108a1d28b.png)
Input File: 04 The Womb.mp3
Channels : 2
Sample Rate : 44100
Precision : 16-bit
Duration : 00:06:03.45 = 16028101 samples = 27258.7 CDDA sectors
File Size : 14.5M
Bit Rate : 320k
Sample Encoding: MPEG audio (layer I, II or III)
Comments :
Title=The Womb
Artist=Е kan
Album=Death Crown
Tracknumber=4
Year=2018



Register


Go to the top of the page
  Insert nick Quick quote
+Quote Post
 
Start new topic
Replies (1 - 7)
post Apr 16 2018, 06:48:09
Post #2

hearer & reader
**************
Group: Металариец
Posts: 7,223
Releases: 92
From: Moscow
On Forums: 11 years 3 months
Thanks: 6871 time(s)
Russian Federation




Thanks:
(1) Necroalex,
Go to the top of the page
  Insert nick Quick quote
+Quote Post
post Apr 23 2018, 20:17:44
Post #3
BAN
Banned till
Jan 15 2019, 21:24:14



крутейшая вещь, в числе лучшего, что я слышал в этом году.
только у Initium и Au Dela почему-то нулевой размер и такой же, соответственно, хронометраж.
понятно, что эти интрухи и в куй никому не впились, но все равно слегонца негодую, например.
Go to the top of the page
  Insert nick Quick quote
+Quote Post
post Apr 23 2018, 21:01:30
Post #4

Маньяк
**********
Group: Металариец
Posts: 1,135
Releases: 0
On Forums: 9 years 9 months
Thanks: 388 time(s)
Antarctica


Непримечательный и даже нудноватый альбом.
Go to the top of the page
  Insert nick Quick quote
+Quote Post
post Apr 24 2018, 06:44:52
Post #5
BAN
Banned till
Jan 15 2019, 21:24:14



ЦИТАТА(mittal @ Apr 23 2018, 21:01:30) *
Непримечательный и даже нудноватый альбом.


в допинфо практически прямым текстом написано, что гівнарям будет неинтересно.
но кое-кто долбится не только в уши, но и в очи.
Go to the top of the page
  Insert nick Quick quote
+Quote Post
post Apr 24 2018, 07:10:44
Post #6

Маньяк
**********
Group: Металариец
Posts: 1,135
Releases: 0
On Forums: 9 years 9 months
Thanks: 388 time(s)
Antarctica


ЦИТАТА(templ @ 24th April 2018 - 08:44:52) *
в допинфо практически прямым текстом написано, что гівнарям будет неинтересно.

Однако же ты заинтересовался.
Go to the top of the page
  Insert nick Quick quote
+Quote Post
post Apr 24 2018, 07:51:17
Post #7

Шесть Литров
******
Group: Металариец
Posts: 670
Releases: 0
On Forums: 11 years 1 month
Thanks: 251 time(s)
Belarus


хороший материал (IMG:style_emoticons/default/20.gif)
Go to the top of the page
  Insert nick Quick quote
+Quote Post
post May 25 2018, 14:04:48
Post #8

Маньяк
**********
Group: Металариец
Posts: 1,463
Releases: 14
From: Москва
On Forums: 10 years 8 months
Thanks: 931 time(s)
Antarctica


В копилку хороших (с плюсом) альбомов 2018 однозначно попадает. Сумбур некоторый есть, но цепляет.
Go to the top of the page
  Insert nick Quick quote
+Quote Post

Reply to this topicStart new topic
1 User(s) are reading this topic (1 Guests and 0 Anonymous Users)
0 Members:

 



- Lo-Fi Version Support form
Copyrights and abuse reports form
Time is now: 13th December 2018 - 10:36:16