Welcome Guest ( Log In | Register )

> Releases Upload / Добавление релизов

Добавить релиз тут / Click here to add release
Рекомендованные обменники / Recommended file shares

> Škan - Death Crown (2018), Black/Death Metal
post Apr 15 2018, 04:00:39
Post #1

Правь статус, ####!111
**************
Group: Металариец
Posts: 3,127
Releases: 532
From: Brazil
On Forums: 6 years 2 months
Thanks: 22295 time(s)
Brazil


(IMG:https://metalarea.org/images/audiocovers/2018_Apr/acov_tid304682_thumb.jpg)

*Artist: Škan
*Album: Death Crown
*Year: 2018
*Genre: Black/Death Metal
*Country: United States (IMG:https://metalarea.org/forum/style_images/flags/United%20States.png)
*Format: mp3@CBR320kbps
*Size: 101MB

Tracklist:
1. Initium 01:54
2. Death Wish 03:43
3. A Mort 02:32
4. The Womb 06:03
5. Au Dela 02:16
6. Iron & Blood 06:08
7. Father Qayin 09:42
8. For the Love of Death 11:27
******************************
Total playing time: 43:45



Extended info
Ván Records


Technical info
(IMG:https://metalarea.org/images/spectrogram/2018_Apr/a040f0d75de335978aaa264108a1d28b.png)
Input File: 04 The Womb.mp3
Channels : 2
Sample Rate : 44100
Precision : 16-bit
Duration : 00:06:03.45 = 16028101 samples = 27258.7 CDDA sectors
File Size : 14.5M
Bit Rate : 320k
Sample Encoding: MPEG audio (layer I, II or III)
Comments :
Title=The Womb
Artist=Е kan
Album=Death Crown
Tracknumber=4
Year=2018



Register


Вернуться к началу страницы
  Insert nick Quick quote
+Цитировать сообщение
 
Создать новую тему
Replies (1 - 1)
post Apr 16 2018, 06:48:09
Post #2

hearer & reader
**************
Group: Металариец
Posts: 6,156
Releases: 81
From: Moscow
On Forums: 10 years 7 months
Thanks: 6329 time(s)
Russian Federation




Thanks:
(1) Necroalex,
Вернуться к началу страницы
  Insert nick Quick quote
+Цитировать сообщение

ОтветитьСоздать новую тему
2 User(s) are reading this topic (2 Guests and 0 Anonymous Users)
0 Members:

 



- Lo-Fi Version Support form
Copyrights and abuse reports form
Time is now: 21st April 2018 - 10:38:20