Welcome Guest ( Log In | Register )

 
Reply to this topicStart new topic
> Varmia - W Ciele Nie (2018), Black/Folk Metal
post Apr 15 2018, 04:18:06
Post #1

Правь статус, ####!111
**************
Group: Металариец
Posts: 3,298
Releases: 643
From: Brazil
On Forums: 6 years 7 months
Thanks: 25562 time(s)
Brazil


(IMG:https://metalarea.org/images/audiocovers/2018_Apr/acov_tid304683_thumb.jpg)

*Artist: Varmia
*Album: W Ciele Nie
*Year: 2018
*Genre: Black/Folk Metal
*Country: Poland (IMG:https://metalarea.org/forum/style_images/flags/Poland.png)
*Format: mp3@CBR320kbps
*Size: 122MB

Tracklist:
1. TAWE 05:18
2. Biesowisko 05:42
3. Pokarvis 06:30
4. Stygma Ziemi 06:23
5. Ni ya 06:22
6. Czeremcha 04:34
7. Nów się rodzi 07:31
8. Skvarc 08:25
9. Bez pożegnania 02:10
******************************
Total playing time: 52:55



Extended info
Pagan Records

Varmia were established in 2016 in Olsztyn, Poland by guitarist & vocalist, Lasota. The band’s name is taken from the historical region in northern Poland, Warmia. It reflects the band’s lyrical content which is inspired by pre-Slavic qualities and heritage of the Warmia district. Varmia carry the ethnic Slavic spirit into the recording by utilising Slavic instruments and recording the material fully live.

Entitled, “W ciele nie” is the band’s second album that follows up on the outstanding debut, “Z mar twych”.

Varmia favour the natural and authentic sound. That is why the new album was recorded in a makeshift studio in an old barn, while the vocals and ethnic instruments were recorded live in the forests in Warmia, a region in northern Poland. The result of this is black metal loaded with wilderness and heathen spirit.


Technical info
(IMG:https://metalarea.org/images/spectrogram/2018_Apr/451bbf5298b7ebd751c4245d375ba8e7.png)
Input File: 01 TAWE.mp3
Channels : 2
Sample Rate : 44100
Precision : 16-bit
Duration : 00:05:17.86 = 14017670 samples = 23839.6 CDDA sectors
File Size : 12.7M
Bit Rate : 320k
Sample Encoding: MPEG audio (layer I, II or III)
Comments :
Title=TAWE
Artist=Varmia
Album=W ciele nie
Tracknumber=1
Year=2018



Register


Go to the top of the page
  Insert nick Quick quote
+Quote Post

Reply to this topicStart new topic
1 User(s) are reading this topic (1 Guests and 0 Anonymous Users)
0 Members:

 



- Lo-Fi Version Support form
Copyrights and abuse reports form
Time is now: 22nd September 2018 - 04:22:39