Welcome Guest ( Log In | Register )

> Releases Upload / Добавление релизов

Добавить релиз тут / Click here to add release
Рекомендованные обменники / Recommended file shares

 
ОтветитьСоздать новую тему
> Ignii Hatis - Apêndice Infernal II [demo] (2018), Raw Black Metal
post Apr 15 2018, 04:59:14
Post #1

Правь статус, ####!111
**************
Group: Металариец
Posts: 3,127
Releases: 532
From: Brazil
On Forums: 6 years 2 months
Thanks: 22295 time(s)
Brazil


(IMG:https://metalarea.org/images/audiocovers/2018_Apr/acov_tid304684_thumb.png)

*Artist: Ignii Hatis
*Album: Apêndice Infernal II [demo]
*Year: 2018
*Genre: Raw Black Metal
*Country: Portugal (IMG:https://metalarea.org/forum/style_images/flags/Portugal.png)
*Format: mp3@CBR320kbps
*Size: 52MB

Tracklist:
1. Oraçao Ardente aos Guardioes do Fogo Negro 03:34
2. Catalizaçao Sinistra de Ódio Obscuro a Criaçao 06:43
3. Com a Pulsar Estelar Descende a Apneia de Ódio Estático (A Massa da Morte nos Humanos) 04:00
4. Untitled 03:14
******************************
Total playing time: 17:31

Extended info
Tape rip by toooooomb.blogspot.com


Technical info
(IMG:https://metalarea.org/images/spectrogram/2018_Apr/ef4167a8902840fce3b1b92f17a4689f.png)
Input File: 03. Apneia de Ódio Estático (Pulsar de Mortes em Massa a Humanos).mp3
Channels : 2
Sample Rate : 44100
Precision : 16-bit
Duration : 00:04:23.10 = 11602842 samples = 19732.7 CDDA sectors
File Size : 10.5M
Bit Rate : 320k
Sample Encoding: MPEG audio (layer I, II or III)
Comments :
Title=Apneia de Г“dio EstГЎtico (Pulsar de Mortes em Massa a Humanos)
Artist=Ignii Hatis
Album=ApГЄndice Infernal II
Tracknumber=3/4
Year=2013
Genre=Black Metal



Register


Вернуться к началу страницы
  Insert nick Quick quote
+Цитировать сообщение

ОтветитьСоздать новую тему
1 User(s) are reading this topic (1 Guests and 0 Anonymous Users)
0 Members:

 



- Lo-Fi Version Support form
Copyrights and abuse reports form
Time is now: 21st April 2018 - 10:27:49