Welcome Guest ( Log In | Register )

> Releases Upload / Добавление релизов

Добавить релиз тут / Click here to add release
Рекомендованные обменники / Recommended file shares

> Quiet Human - The Roswell Incident (2018), Doom Metal
post Apr 15 2018, 06:00:53
Post #1

Правь статус, ####!111
**************
Group: Металариец
Posts: 12,645
Releases: 9061
From: Г.Харьков
On Forums: 5 years 11 months
Thanks: 146442 time(s)
Unknown


(IMG:http://metalarea.org/images/audiocovers/2018_Apr/acov_tid304686_thumb.jpg)

*Artist: Quiet Human
*Album: The Roswell Incident
*Year: 2018
*Genre: Doom Metal
*Country: France (IMG:http://metalarea.org/forum/style_images/flags/France.png)
*Format: mp3@CBR320kbps
*Size: 117MB

Tracklist:
1. The Roswell Incident 13:42
2. Ëbe 1 09:52
3. Zeta Reticuli 09:25
4. The Abducted 01:38
5. What Lurks Above 10:26
6. Area 51 05:49
******************************
Total playing time: 50:52



Extended info
Christouff : Harsh Vox
JC Chicco: Drums
Verdo : Guitars, Bass, Synth & Samples, Low Vox


Technical info
(IMG:http://metalarea.org/images/spectrogram/2018_Apr/41caa8dabf42f03a7c40437a6d074db0.png)
Input File: 03. Zeta Reticuli.mp3
Channels : 2
Sample Rate : 44100
Precision : 16-bit
Duration : 00:00:00.57 = 24917 samples = 42.3759 CDDA sectors
File Size : 22.8M
Bit Rate : 322M
Sample Encoding: MPEG audio (layer I, II or III)
Comments :
Title=Zeta Reticuli
Artist=Quiet Human
Album=The Roswell Incident
Tracknumber=3/6
Year=2018-18-20
Discnumber=1/1



Register


Вернуться к началу страницы
  Insert nick Quick quote
+Цитировать сообщение
 
Создать новую тему
Replies (1 - 2)
post Apr 15 2018, 08:53:24
Post #2

Правь статус, ####!111
**************
Group: Металариец
Posts: 12,645
Releases: 9061
From: Г.Харьков
On Forums: 5 years 11 months
Thanks: 146442 time(s)
Unknown


Register


Thanks:
Вернуться к началу страницы
  Insert nick Quick quote
+Цитировать сообщение
post Apr 15 2018, 09:02:59
Post #3

Мегаманьяк
***********
Group: Металариец
Posts: 1,744
Releases: 0
From: Odessa
On Forums: 10 years 1 month
Thanks: 607 time(s)
Ukraine


because it's a bit slow doesn't mean it's doom. it's nothing at all tbh, noise with some doomy parts. next
Вернуться к началу страницы
  Insert nick Quick quote
+Цитировать сообщение

ОтветитьСоздать новую тему
1 User(s) are reading this topic (1 Guests and 0 Anonymous Users)
0 Members:

 



- Lo-Fi Version Support form
Copyrights and abuse reports form
Time is now: 21st April 2018 - 10:28:08