Welcome Guest ( Log In | Register )

> Releases Upload / Добавление релизов

Добавить релиз тут / Click here to add release
Рекомендованные обменники / Recommended file shares

> Boris Randall - The Blood And The Flesh (2018), Stoner/Sludge/Doom Metal
post Apr 15 2018, 06:17:25
Post #1

Правь статус, ####!111
**************
Group: Металариец
Posts: 12,645
Releases: 9061
From: Г.Харьков
On Forums: 5 years 11 months
Thanks: 146442 time(s)
Unknown


(IMG:http://metalarea.org/images/audiocovers/2018_Apr/acov_tid304687_thumb.jpg)

*Artist: Boris Randall
*Album: The Blood And The Flesh
*Year: 2018
*Genre: Stoner/Sludge/Doom Metal
*Country: United States (IMG:http://metalarea.org/forum/style_images/flags/United%20States.png)
*Format: mp3@CBR320kbps
*Size: 143MB

Tracklist:
1. Wendigo Freed 06:21
2. Nosferatu 10:25
3. Suicide Forest 05:23
4. Phantasm 03:26
5. The Blood And The Flesh 07:36
6. Thirteen Desires 07:38
7. Immoral Tales 14:55
8. Olaf 06:57
******************************
Total playing time: 1:02:41



Extended info
Boris Randall has been spreading chaos and disorder with his music since the mid 80's. Things got heavy when he set out on his own in 1989 with his horror/hardcore punk band, The Splatterpunks. In 2001 Boris Formed and fronted another horror themed punk band called Hallowmas. Boris has worked with Rue Morgue Radio, Bill Hinzman, Necrophagia, Nokturne, Morgue Wagon, Children Of October, and more


Technical info
(IMG:http://metalarea.org/images/spectrogram/2018_Apr/7266d32a05bdba3b245b352441626439.png)
Input File: 02. Nosferatu.mp3
Channels : 2
Sample Rate : 44100
Precision : 16-bit
Duration : 00:10:25.15 = 27568895 samples = 46885.9 CDDA sectors
File Size : 25.0M
Bit Rate : 320k
Sample Encoding: MPEG audio (layer I, II or III)
Comments :
Title=Nosferatu
Artist=Boris Randall
Album=The Blood And The Flesh
Tracknumber=2
Year=2018



Register


Вернуться к началу страницы
  Insert nick Quick quote
+Цитировать сообщение
 
Создать новую тему
Replies (1 - 1)
post Apr 15 2018, 09:07:46
Post #2

Правь статус, ####!111
**************
Group: Металариец
Posts: 12,645
Releases: 9061
From: Г.Харьков
On Forums: 5 years 11 months
Thanks: 146442 time(s)
Unknown


Register


Thanks:
Вернуться к началу страницы
  Insert nick Quick quote
+Цитировать сообщение

ОтветитьСоздать новую тему
1 User(s) are reading this topic (1 Guests and 0 Anonymous Users)
0 Members:

 



- Lo-Fi Version Support form
Copyrights and abuse reports form
Time is now: 21st April 2018 - 10:29:01