Welcome Guest ( Log In | Register )

 
Reply to this topicStart new topic
> Rebellix - Final Decay [ep] (2018), Thrash/Heavy Metal
post Apr 15 2018, 06:54:01
Post #1

Правь статус, ####!111
**************
Group: Металариец
Posts: 14,292
Releases: 9912
From: Г.Харьков
On Forums: 6 years 4 months
Thanks: 162625 time(s)
Unknown


(IMG:http://metalarea.org/images/audiocovers/2018_Apr/acov_tid304688_thumb.jpg)

*Artist: Rebellix
*Album: Final Decay [ep]
*Year: 2018
*Genre: Thrash/Heavy Metal
*Country: Finland (IMG:http://metalarea.org/forum/style_images/flags/Finland.png)
*Format: mp3@CBR320kbps
*Size: 40MB

Tracklist:
1. Playin' with My Devil 03:36
2. Final Decay 05:11
3. This Time 04:55
4. Unholy Possession 03:49
******************************
Total playing time: 17:31




Extended info
Sammy Dee G Guitars (2013-present), Vocals (backing) (2013-present)
Jdee Nighte Vocals (2013-present)
Tomi Lapland Guitars (2015-present)
See also: Darcasis, The Drowned, ex-The Entropy, ex-Devil's Advocates, ex-Tunrida
Michael Lennox Drums (2016-present)


Technical info
(IMG:http://metalarea.org/images/spectrogram/2018_Apr/adbc351743c3fe162cace3df64d0ee71.png)
Input File: 02 - Final Decay.mp3
Channels : 2
Sample Rate : 44100
Precision : 16-bit
Duration : 00:05:11.15 = 13721495 samples = 23335.9 CDDA sectors
File Size : 12.4M
Bit Rate : 320k
Sample Encoding: MPEG audio (layer I, II or III)
Comments :
Title=Final Decay
Artist=Rebellix
Album=Final Decay
Tracknumber=2
Year=2018
Genre=Thrash Metal



Register


Go to the top of the page
  Insert nick Quick quote
+Quote Post

Reply to this topicStart new topic
1 User(s) are reading this topic (1 Guests and 0 Anonymous Users)
0 Members:

 



- Lo-Fi Version Support form
Copyrights and abuse reports form
Time is now: 22nd September 2018 - 03:56:50