Welcome Guest ( Log In | Register )

> Releases Upload / Добавление релизов

Добавить релиз тут / Click here to add release
Рекомендованные обменники / Recommended file shares

 
ОтветитьСоздать новую тему
> Rebellix - Final Decay [ep] (2018), Thrash/Heavy Metal
post Apr 15 2018, 06:54:01
Post #1

Правь статус, ####!111
**************
Group: Металариец
Posts: 12,645
Releases: 9061
From: Г.Харьков
On Forums: 5 years 11 months
Thanks: 146442 time(s)
Unknown


(IMG:http://metalarea.org/images/audiocovers/2018_Apr/acov_tid304688_thumb.jpg)

*Artist: Rebellix
*Album: Final Decay [ep]
*Year: 2018
*Genre: Thrash/Heavy Metal
*Country: Finland (IMG:http://metalarea.org/forum/style_images/flags/Finland.png)
*Format: mp3@CBR320kbps
*Size: 40MB

Tracklist:
1. Playin' with My Devil 03:36
2. Final Decay 05:11
3. This Time 04:55
4. Unholy Possession 03:49
******************************
Total playing time: 17:31




Extended info
Sammy Dee G Guitars (2013-present), Vocals (backing) (2013-present)
Jdee Nighte Vocals (2013-present)
Tomi Lapland Guitars (2015-present)
See also: Darcasis, The Drowned, ex-The Entropy, ex-Devil's Advocates, ex-Tunrida
Michael Lennox Drums (2016-present)


Technical info
(IMG:http://metalarea.org/images/spectrogram/2018_Apr/adbc351743c3fe162cace3df64d0ee71.png)
Input File: 02 - Final Decay.mp3
Channels : 2
Sample Rate : 44100
Precision : 16-bit
Duration : 00:05:11.15 = 13721495 samples = 23335.9 CDDA sectors
File Size : 12.4M
Bit Rate : 320k
Sample Encoding: MPEG audio (layer I, II or III)
Comments :
Title=Final Decay
Artist=Rebellix
Album=Final Decay
Tracknumber=2
Year=2018
Genre=Thrash Metal



Register


Вернуться к началу страницы
  Insert nick Quick quote
+Цитировать сообщение

ОтветитьСоздать новую тему
2 User(s) are reading this topic (2 Guests and 0 Anonymous Users)
0 Members:

 



- Lo-Fi Version Support form
Copyrights and abuse reports form
Time is now: 21st April 2018 - 10:32:03