Welcome Guest ( Log In | Register )

> Releases Upload / Добавление релизов

Добавить релиз тут / Click here to add release
Рекомендованные обменники / Recommended file shares

> Phantom Elite - Wasteland (2018), Symphonic Metal
post Apr 15 2018, 07:44:34
Post #1

Правь статус, ####!111
**************
Group: Металариец
Posts: 12,645
Releases: 9061
From: Г.Харьков
On Forums: 5 years 11 months
Thanks: 146442 time(s)
Unknown


(IMG:http://metalarea.org/images/audiocovers/2018_Apr/acov_tid304693_thumb.jpg)

*Artist: Phantom Elite
*Album: Wasteland
*Year: 2018
*Genre: Symphonic Metal
*Country: Netherlands (IMG:http://metalarea.org/forum/style_images/flags/Netherlands.png)
*Format: mp3@CBR320kbps
*Size: 134MB

Tracklist:
01. Siren's Call
02. Rise with the Dawn
03. Another Day
04. Wasteland
05. Revelation
06. Astray
07. Every Man for Himself
08. Spectrum of Fear
09. With the Gods
10. Above the Crowd
11. Lockdown
12. Serenades of the Netherworld (Bonus Track)
******************************
Total playing time: 58:06

Preview 1

Extended info
Eelco van der Meer Drums
Ted Wouters Guitars
Goof Veelen Guitars
Marina La Torraca Vocals
Siebe Sijpkens Bass



Technical info
(IMG:http://metalarea.org/images/spectrogram/2018_Apr/b5bce2c09a0e98627e941fdb7db1a659.png)
Input File: 02. Rise with the Dawn.mp3
Channels : 2
Sample Rate : 44100
Precision : 16-bit
Duration : 00:00:00.27 = 12083 samples = 20.5493 CDDA sectors
File Size : 11.0M
Bit Rate : 322M
Sample Encoding: MPEG audio (layer I, II or III)
Comments :
Title=Rise with the Dawn
Artist=Phantom Elite
Album=Wasteland
Tracknumber=2/12
Year=2018-18-20
Discnumber=1/1



Register


Вернуться к началу страницы
  Insert nick Quick quote
+Цитировать сообщение
 
Создать новую тему
Replies (1 - 2)
post Apr 15 2018, 09:09:37
Post #2

Правь статус, ####!111
**************
Group: Металариец
Posts: 12,645
Releases: 9061
From: Г.Харьков
On Forums: 5 years 11 months
Thanks: 146442 time(s)
Unknown


Register


Вернуться к началу страницы
  Insert nick Quick quote
+Цитировать сообщение
post Today, 10:11:08
Post #3

Перевозчик
**************
Group: Металариец
Posts: 2,697
Releases: 0
On Forums: 9 years 9 months
Thanks: 538 time(s)
Russian Federation


Мелодий и аранжировок не обнаружено.
Вернуться к началу страницы
  Insert nick Quick quote
+Цитировать сообщение

ОтветитьСоздать новую тему
1 User(s) are reading this topic (1 Guests and 0 Anonymous Users)
0 Members:

 



- Lo-Fi Version Support form
Copyrights and abuse reports form
Time is now: 21st April 2018 - 10:24:52