Welcome Guest ( Log In | Register )

> Phantom Elite - Wasteland (2018), Symphonic Metal
post Apr 15 2018, 07:44:34
Post #1

Правь статус, ####!111
**************
Group: Металариец
Posts: 13,943
Releases: 9727
From: Г.Харьков
On Forums: 6 years 3 months
Thanks: 159626 time(s)
Unknown


(IMG:http://metalarea.org/images/audiocovers/2018_Apr/acov_tid304693_thumb.jpg)

*Artist: Phantom Elite
*Album: Wasteland
*Year: 2018
*Genre: Symphonic Metal
*Country: Netherlands (IMG:http://metalarea.org/forum/style_images/flags/Netherlands.png)
*Format: mp3@CBR320kbps
*Size: 134MB

Tracklist:
01. Siren's Call
02. Rise with the Dawn
03. Another Day
04. Wasteland
05. Revelation
06. Astray
07. Every Man for Himself
08. Spectrum of Fear
09. With the Gods
10. Above the Crowd
11. Lockdown
12. Serenades of the Netherworld (Bonus Track)
******************************
Total playing time: 58:06

Preview 1

Extended info
Eelco van der Meer Drums
Ted Wouters Guitars
Goof Veelen Guitars
Marina La Torraca Vocals
Siebe Sijpkens Bass



Technical info
(IMG:http://metalarea.org/images/spectrogram/2018_Apr/b5bce2c09a0e98627e941fdb7db1a659.png)
Input File: 02. Rise with the Dawn.mp3
Channels : 2
Sample Rate : 44100
Precision : 16-bit
Duration : 00:00:00.27 = 12083 samples = 20.5493 CDDA sectors
File Size : 11.0M
Bit Rate : 322M
Sample Encoding: MPEG audio (layer I, II or III)
Comments :
Title=Rise with the Dawn
Artist=Phantom Elite
Album=Wasteland
Tracknumber=2/12
Year=2018-18-20
Discnumber=1/1



Register


Go to the top of the page
  Insert nick Quick quote
+Quote Post
 
Start new topic
Replies (1 - 3)
post Apr 15 2018, 09:09:37
Post #2

Правь статус, ####!111
**************
Group: Металариец
Posts: 13,943
Releases: 9727
From: Г.Харьков
On Forums: 6 years 3 months
Thanks: 159626 time(s)
Unknown


Register


Go to the top of the page
  Insert nick Quick quote
+Quote Post
post Apr 21 2018, 10:11:08
Post #3

Перевозчик
**************
Group: Металариец
Posts: 2,754
Releases: 0
On Forums: 10 years 1 month
Thanks: 572 time(s)
Russian Federation


Мелодий и аранжировок не обнаружено.
Go to the top of the page
  Insert nick Quick quote
+Quote Post
post Jun 3 2018, 14:28:58
Post #4

South Of Heaven /адепт ВУДУ
**************
Group: Металариец
Posts: 12,643
Releases: 7
From: Санкт-Петербург
On Forums: 8 years 4 months
Thanks: 4599 time(s)
Russian Federation


Слабоватосеровато.
Go to the top of the page
  Insert nick Quick quote
+Quote Post

Reply to this topicStart new topic
2 User(s) are reading this topic (2 Guests and 0 Anonymous Users)
0 Members:

 



- Lo-Fi Version Support form
Copyrights and abuse reports form
Time is now: 19th August 2018 - 04:34:31