Welcome Guest ( Log In | Register )

> Rotten Sound - Suffer To Abuse [ep] (2018), Death Metal/Grindcore
post Apr 15 2018, 08:39:11
Post #1

Аннигилятор пивА
Group Icon
Group: V.I.P
Posts: 50,782
Releases: 15826
From: Koenigsberg - TILZIT
On Forums: 12 years 6 months
Thanks: 345225 time(s)
Russian Federation


(IMG:https://metalarea.org/images/audiocovers/2018_Apr/acov_tid304694_thumb.jpg)

*Artist: Rotten Sound
*Album: Suffer To Abuse [ep]
*Year: 2018
*Genre: Death Metal/Grindcore
*Country: Finland (IMG:https://metalarea.org/forum/style_images/flags/Finland.png)
*Format: mp3@CBR320kbps
*Size: 31MB

Tracklist:
01. Privileged
02. The Misfit
03. Stressed Mess
04. Harvester of Boredom
05. One Hit Wonder
06. Nutrition
07. Slaves of Lust
******************************
Total playing time: 11:56



Extended info
ROTTEN SOUND; scorching speed, crushing heaviness and some of the most ferocious vocals the genre has ever seen.

Q - Guitars (1993-present) See also: O, Malev6, ex-Vomiturition, ex-...and Oceans, ex-Black Dawn, ex-Havoc Unit, The D-Beat Gangsters, ex-True Black Dawn, ex-Deathbound, ex-Epäjärjestys
G - Vocals (1993-present) See also: Morbid Evils, ex-Uttervoid, ex-Vomiturition, ex-Nasum, Burlesque, ex-Medeia
Sami Latva - Drums (2006-present) See also: Coughdust, O, ex-Deathbound, ex-Ghost Guard, ex-...and Oceans, ex-Havoc Unit, All in Me
Kristian Toivainen - Bass (2010-present) See also: The D-Beat Gangsters


Technical info
(IMG:https://metalarea.org/images/spectrogram/2018_Apr/ff1d24cdd21153fafe1814712c803ede.png)
Input File: 02. The Misfit.mp3
Channels : 2
Sample Rate : 44100
Precision : 16-bit
Duration : 00:02:04.69 = 5498609 samples = 9351.38 CDDA sectors
File Size : 4.99M
Bit Rate : 320k
Sample Encoding: MPEG audio (layer I, II or III)
Comments :
Title=The Misfit
Artist=Rotten Sound
Album=Suffer To Abuse [EP]
Tracknumber=2
Year=2018



Register


Go to the top of the page
  Insert nick Quick quote
+Quote Post
 
Start new topic
Replies (1 - 6)
post Apr 15 2018, 09:08:12
Post #2

Аннигилятор пивА
Group Icon
Group: V.I.P
Posts: 50,782
Releases: 15826
From: Koenigsberg - TILZIT
On Forums: 12 years 6 months
Thanks: 345225 time(s)
Russian Federation


MIRROR
Register


Go to the top of the page
  Insert nick Quick quote
+Quote Post
post Apr 15 2018, 09:13:59
Post #3

Правь статус, ####!111
**************
Group: Металариец
Posts: 2,932
Releases: 0
From: Одесса
On Forums: 10 years 9 months
Thanks: 1273 time(s)
Ukraine


Are they crafting a better grind again?
Go to the top of the page
  Insert nick Quick quote
+Quote Post
post Apr 15 2018, 10:28:25
Post #4

Наливай!
**************
Group: Металариец
Posts: 5,165
Releases: 27
From: Москва-Бибирево
On Forums: 10 years 8 months
Thanks: 2432 time(s)
Russian Federation


Go to the top of the page
  Insert nick Quick quote
+Quote Post
post Apr 16 2018, 08:29:21
Post #5

Два Литра
**
Group: Завсегдатай
Posts: 184
Releases: 16
From: Podillya
On Forums: 10 years 10 hours
Thanks: 156 time(s)
Ukraine


Архив битый
Go to the top of the page
  Insert nick Quick quote
+Quote Post
post Apr 16 2018, 10:24:00
Post #6

Аннигилятор пивА
Group Icon
Group: V.I.P
Posts: 50,782
Releases: 15826
From: Koenigsberg - TILZIT
On Forums: 12 years 6 months
Thanks: 345225 time(s)
Russian Federation


ЦИТАТА(Fearmaker @ Apr 16 2018, 07:29:21) *
Архив битый

нет, у тебя архиватор устарел, поставь свежий, а так вот версия на старом
Register


Thanks:
Go to the top of the page
  Insert nick Quick quote
+Quote Post
post May 9 2018, 23:00:47
Post #7

Ледоруб
**************
Group: Металариец
Posts: 20,920
Releases: 0
From: Санкт-Петербург
On Forums: 9 years 3 months
Thanks: 6777 time(s)
Russian Federation


Предупредили бы хоть.
Go to the top of the page
  Insert nick Quick quote
+Quote Post

Reply to this topicStart new topic
1 User(s) are reading this topic (1 Guests and 0 Anonymous Users)
0 Members:

 



- Lo-Fi Version Support form
Copyrights and abuse reports form
Time is now: 13th December 2018 - 09:10:32