Welcome Guest ( Log In | Register )

> Releases Upload / Добавление релизов

Добавить релиз тут / Click here to add release
Рекомендованные обменники / Recommended file shares

> Rotten Sound - Suffer To Abuse [ep] (2018), Death Metal/Grindcore (D)
post Apr 15 2018, 08:39:11
Post #1

Аннигилятор пивА
Group Icon
Group: V.I.P
Posts: 46,651
Releases: 14002
From: Koenigsberg - TILZIT
On Forums: 11 years 10 months
Thanks: 309974 time(s)
Russian Federation


(IMG:https://metalarea.org/images/audiocovers/2018_Apr/acov_tid304694_thumb.jpg)

*Artist: Rotten Sound
*Album: Suffer To Abuse [ep]
*Year: 2018
*Genre: Death Metal/Grindcore
*Country: Finland (IMG:https://metalarea.org/forum/style_images/flags/Finland.png)
*Format: mp3@CBR320kbps
*Size: 31MB

Tracklist:
01. Privileged
02. The Misfit
03. Stressed Mess
04. Harvester of Boredom
05. One Hit Wonder
06. Nutrition
07. Slaves of Lust
******************************
Total playing time: 11:56



Extended info
ROTTEN SOUND; scorching speed, crushing heaviness and some of the most ferocious vocals the genre has ever seen.

Q - Guitars (1993-present) See also: O, Malev6, ex-Vomiturition, ex-...and Oceans, ex-Black Dawn, ex-Havoc Unit, The D-Beat Gangsters, ex-True Black Dawn, ex-Deathbound, ex-Epäjärjestys
G - Vocals (1993-present) See also: Morbid Evils, ex-Uttervoid, ex-Vomiturition, ex-Nasum, Burlesque, ex-Medeia
Sami Latva - Drums (2006-present) See also: Coughdust, O, ex-Deathbound, ex-Ghost Guard, ex-...and Oceans, ex-Havoc Unit, All in Me
Kristian Toivainen - Bass (2010-present) See also: The D-Beat Gangsters


Technical info
(IMG:https://metalarea.org/images/spectrogram/2018_Apr/ff1d24cdd21153fafe1814712c803ede.png)
Input File: 02. The Misfit.mp3
Channels : 2
Sample Rate : 44100
Precision : 16-bit
Duration : 00:02:04.69 = 5498609 samples = 9351.38 CDDA sectors
File Size : 4.99M
Bit Rate : 320k
Sample Encoding: MPEG audio (layer I, II or III)
Comments :
Title=The Misfit
Artist=Rotten Sound
Album=Suffer To Abuse [EP]
Tracknumber=2
Year=2018



Register


Вернуться к началу страницы
  Insert nick Quick quote
+Цитировать сообщение
 
Создать новую тему
Replies (1 - 5)
post Apr 15 2018, 09:08:12
Post #2

Аннигилятор пивА
Group Icon
Group: V.I.P
Posts: 46,651
Releases: 14002
From: Koenigsberg - TILZIT
On Forums: 11 years 10 months
Thanks: 309974 time(s)
Russian Federation


MIRROR
Register


Вернуться к началу страницы
  Insert nick Quick quote
+Цитировать сообщение
post Apr 15 2018, 09:13:59
Post #3

Мегаманьяк
***********
Group: Металариец
Posts: 1,744
Releases: 0
From: Odessa
On Forums: 10 years 1 month
Thanks: 607 time(s)
Ukraine


Are they crafting a better grind again?
Вернуться к началу страницы
  Insert nick Quick quote
+Цитировать сообщение
post Apr 15 2018, 10:28:25
Post #4

Наливай!
**************
Group: Металариец
Posts: 4,955
Releases: 27
From: Москва-Бибирево
On Forums: 10 years 1 month
Thanks: 2287 time(s)
Russian Federation


Вернуться к началу страницы
  Insert nick Quick quote
+Цитировать сообщение
post Apr 16 2018, 08:29:21
Post #5

Два Литра
**
Group: Завсегдатай
Posts: 184
Releases: 16
From: Podillya
On Forums: 9 years 4 months
Thanks: 154 time(s)
Ukraine


Архив битый
Вернуться к началу страницы
  Insert nick Quick quote
+Цитировать сообщение
post Apr 16 2018, 10:24:00
Post #6

Аннигилятор пивА
Group Icon
Group: V.I.P
Posts: 46,651
Releases: 14002
From: Koenigsberg - TILZIT
On Forums: 11 years 10 months
Thanks: 309974 time(s)
Russian Federation


ЦИТАТА(Fearmaker @ Apr 16 2018, 07:29:21) *
Архив битый

нет, у тебя архиватор устарел, поставь свежий, а так вот версия на старом
Register
Вернуться к началу страницы
  Insert nick Quick quote
+Цитировать сообщение

ОтветитьСоздать новую тему
2 User(s) are reading this topic (2 Guests and 0 Anonymous Users)
0 Members:

 



- Lo-Fi Version Support form
Copyrights and abuse reports form
Time is now: 21st April 2018 - 10:26:56