Welcome Guest ( Log In | Register )

 
Reply to this topicStart new topic
> Znich - Krumkach [single] (2018), Pagan/Folk Metal
post Apr 15 2018, 09:08:44
Post #1

Время Мары
**************
Group: Металариец
Posts: 2,917
Releases: 373
From: Харьков
On Forums: 9 years 2 months
Thanks: 7127 time(s)
Ukraine


(IMG:http://metalarea.org/images/audiocovers/2018_Apr/acov_tid304696_thumb.jpg)

*Artist: Znich
*Album: Krumkach [single]
*Year: 2018
*Genre: Pagan/Folk Metal
*Country: Belarus (IMG:http://metalarea.org/forum/style_images/flags/Belarus.png)
*Format: mp3@CBR320kbps
*Size: 9MB

Tracklist:
1. Крумкач
******************************
Total playing time: 4:04

Extended info


Technical info
(IMG:http://metalarea.org/images/spectrogram/2018_Apr/f73bdac40012b88fa99c13d268a4ce09.png)
Input File: 1. Крумкач.mp3
Channels : 2
Sample Rate : 44100
Precision : 16-bit
Duration : 00:04:03.15 = 10722783 samples = 18236 CDDA sectors
File Size : 9.73M
Bit Rate : 320k
Sample Encoding: MPEG audio (layer I, II or III)
Comments :
Title=Крумкач
Artist=Znich
Album=Крумкач
Tracknumber=1
Year=2018



Register


This post has been edited by Borderline1991: Apr 17 2018, 07:32:27


Go to the top of the page
  Insert nick Quick quote
+Quote Post

Reply to this topicStart new topic
2 User(s) are reading this topic (2 Guests and 0 Anonymous Users)
0 Members:

 



- Lo-Fi Version Support form
Copyrights and abuse reports form
Time is now: 19th August 2018 - 04:33:24