Welcome Guest ( Log In | Register )

> Scarlet Host - Black Days (2018), Extreme Progressive Metal
post Apr 15 2018, 09:08:49
Post #1

Аннигилятор пивА
Group Icon
Group: V.I.P
Posts: 47,365
Releases: 14268
From: Koenigsberg - TILZIT
On Forums: 12 years 1 month
Thanks: 316001 time(s)
Russian Federation


(IMG:https://metalarea.org/images/audiocovers/2018_Apr/acov_tid304697_thumb.jpg)

*Artist: Scarlet Host
*Album: Black Days
*Year: 2018
*Genre: Extreme Progressive Metal
*Country: United Kingdom (IMG:https://metalarea.org/forum/style_images/flags/United%20Kingdom.png)
*Format: mp3@CBR320kbps
*Size: 127MB

Tracklist:
01. Bad Intentions 01:36
02. Walk The Line 04:02
03. Pushing Me Down 05:08
04. One Hour 05:39
05. Damn You 06:10
06. Parasite 06:00
07. Insecurities 04:31
08. Odd Times 04:36
09. In Disguise 05:09
10. Altered State of Denial 06:15
11. Now What? 05:48
******************************
Total playing time: 54:54




Extended info
Kevin Jardim - Guitars, Bass, Keyboards
Dino Jardim - Drums
Lindsey Roussouw - Vocals




Technical info
(IMG:https://metalarea.org/images/spectrogram/2018_Apr/2ccbab3b9dde9d27395fe9ebb88226e1.png)
Input File: 02. Walk The Line.mp3
Channels : 2
Sample Rate : 44100
Precision : 16-bit
Duration : 00:04:02.44 = 10691692 samples = 18183.1 CDDA sectors
File Size : 9.77M
Bit Rate : 322k
Sample Encoding: MPEG audio (layer I, II or III)
Comments :
Title=Walk The Line
Artist=Scarlet Host
Album=Black Days
Tracknumber=02/11
Year=2018
Genre=Metal



Register


Go to the top of the page
  Insert nick Quick quote
+Quote Post
 
Start new topic
Replies (1 - 4)
post Apr 15 2018, 09:55:48
Post #2

Аннигилятор пивА
Group Icon
Group: V.I.P
Posts: 47,365
Releases: 14268
From: Koenigsberg - TILZIT
On Forums: 12 years 1 month
Thanks: 316001 time(s)
Russian Federation


уточню по жанру, тут мелодичный "лепрос" прог метал с вкраплениями прог дэт/трэша
MIRROR
Register


Thanks:
Go to the top of the page
  Insert nick Quick quote
+Quote Post
post Apr 15 2018, 17:58:41
Post #3

Groovy
****
Group: Металариец
Posts: 353
Releases: 53
From: Владимирская обл.
On Forums: 11 years 7 months
Thanks: 864 time(s)
Russian Federation


Все бы ничего, но рэп с**а убивает напрочь.


Thanks:
(1) Foneg,
Go to the top of the page
  Insert nick Quick quote
+Quote Post
post Apr 16 2018, 14:10:35
Post #4

Два Литра
**
Group: Завсегдатай
Posts: 101
Releases: 0
From: Українське місто Харків
On Forums: 11 years 10 months
Thanks: 43 time(s)
Ukraine


Линкин парк какой-то. Что оно в формате делает?


Thanks:
(1) Metalass,
Go to the top of the page
  Insert nick Quick quote
+Quote Post
post May 2 2018, 12:30:34
Post #5

21st Century Schizoid Man
**************
Group: Металариец
Posts: 5,158
Releases: 67
From: Moscow
On Forums: 10 years 2 months
Thanks: 4073 time(s)
Russian Federation


ЦИТАТА(aesteticvice @ Apr 15 2018, 11:55:48) *
уточню по жанру, тут мелодичный "лепрос" прог метал с вкраплениями прог дэт/трэша

Соглашусь. Продукт интересный.
Go to the top of the page
  Insert nick Quick quote
+Quote Post

Reply to this topicStart new topic
1 User(s) are reading this topic (1 Guests and 0 Anonymous Users)
0 Members:

 



- Lo-Fi Version Support form
Copyrights and abuse reports form
Time is now: 19th July 2018 - 18:31:24