Welcome Guest ( Log In | Register )

> Releases Upload / Добавление релизов

Добавить релиз тут / Click here to add release
Рекомендованные обменники / Recommended file shares

> Scarlet Host - Black Days (2018), Extreme Progressive Metal
post Apr 15 2018, 09:08:49
Post #1

Аннигилятор пивА
Group Icon
Group: V.I.P
Posts: 46,651
Releases: 14002
From: Koenigsberg - TILZIT
On Forums: 11 years 10 months
Thanks: 309974 time(s)
Russian Federation


(IMG:https://metalarea.org/images/audiocovers/2018_Apr/acov_tid304697_thumb.jpg)

*Artist: Scarlet Host
*Album: Black Days
*Year: 2018
*Genre: Extreme Progressive Metal
*Country: United Kingdom (IMG:https://metalarea.org/forum/style_images/flags/United%20Kingdom.png)
*Format: mp3@CBR320kbps
*Size: 127MB

Tracklist:
01. Bad Intentions 01:36
02. Walk The Line 04:02
03. Pushing Me Down 05:08
04. One Hour 05:39
05. Damn You 06:10
06. Parasite 06:00
07. Insecurities 04:31
08. Odd Times 04:36
09. In Disguise 05:09
10. Altered State of Denial 06:15
11. Now What? 05:48
******************************
Total playing time: 54:54




Extended info
Kevin Jardim - Guitars, Bass, Keyboards
Dino Jardim - Drums
Lindsey Roussouw - Vocals




Technical info
(IMG:https://metalarea.org/images/spectrogram/2018_Apr/2ccbab3b9dde9d27395fe9ebb88226e1.png)
Input File: 02. Walk The Line.mp3
Channels : 2
Sample Rate : 44100
Precision : 16-bit
Duration : 00:04:02.44 = 10691692 samples = 18183.1 CDDA sectors
File Size : 9.77M
Bit Rate : 322k
Sample Encoding: MPEG audio (layer I, II or III)
Comments :
Title=Walk The Line
Artist=Scarlet Host
Album=Black Days
Tracknumber=02/11
Year=2018
Genre=Metal



Register


Вернуться к началу страницы
  Insert nick Quick quote
+Цитировать сообщение
 
Создать новую тему
Replies (1 - 3)
post Apr 15 2018, 09:55:48
Post #2

Аннигилятор пивА
Group Icon
Group: V.I.P
Posts: 46,651
Releases: 14002
From: Koenigsberg - TILZIT
On Forums: 11 years 10 months
Thanks: 309974 time(s)
Russian Federation


уточню по жанру, тут мелодичный "лепрос" прог метал с вкраплениями прог дэт/трэша
MIRROR
Register


Thanks:
Вернуться к началу страницы
  Insert nick Quick quote
+Цитировать сообщение
post Apr 15 2018, 17:58:41
Post #3

Groovy
****
Group: Металариец
Posts: 351
Releases: 53
From: Владимирская обл.
On Forums: 11 years 4 months
Thanks: 860 time(s)
Russian Federation


Все бы ничего, но рэп с**а убивает напрочь.


Thanks:
(1) Foneg,
Вернуться к началу страницы
  Insert nick Quick quote
+Цитировать сообщение
post Apr 16 2018, 14:10:35
Post #4

Два Литра
**
Group: Завсегдатай
Posts: 101
Releases: 0
From: Українське місто Харків
On Forums: 11 years 7 months
Thanks: 42 time(s)
Ukraine


Линкин парк какой-то. Что оно в формате делает?
Вернуться к началу страницы
  Insert nick Quick quote
+Цитировать сообщение

ОтветитьСоздать новую тему
2 User(s) are reading this topic (2 Guests and 0 Anonymous Users)
0 Members:

 



- Lo-Fi Version Support form
Copyrights and abuse reports form
Time is now: 21st April 2018 - 10:23:24