Welcome Guest ( Log In | Register )

 
Reply to this topicStart new topic
> Der Tod - Der Tod [demo] (1998), Black/Dark Metal
post Apr 15 2018, 09:08:50
Post #1

...
Group Icon
Group: S-moderation team
Posts: 7,172
Releases: 1286
On Forums: 7 years 7 months
Thanks: 35227 time(s)
Croatia


(IMG:http://metalarea.org/images/audiocovers/2018_Apr/acov_tid304698_thumb.jpg)

*Artist: Der Tod
*Album: Der Tod [demo]
*Year: 1998
*Genre: Black/Dark Metal
*Country: Germany (IMG:http://metalarea.org/forum/style_images/flags/Germany.png)
*Format: mp3@CBR320kbps
*Size: 57MB

Tracklist:
1. Doomed - Intro 01:04
2. Soul Cage 03:20
3. Lost in Life 03:58
4. Loneliness 04:55
5. Lebensmüde 04:02
6. Afraid to die 04:49
7. Broken Hope 00:19
8. Der Tod goes Punk (Fuck off trendy Bastards!!!) 02:15
******************************
Total playing time: 24:42

Technical info
(IMG:http://metalarea.org/images/spectrogram/2018_Apr/6fc387b398a6b5dbc02af0959a110c15.png)
Input File: 03 - Lost In Life.mp3
Channels : 2
Sample Rate : 44100
Precision : 16-bit
Duration : 00:03:58.68 = 10525656 samples = 17900.8 CDDA sectors
File Size : 9.55M
Bit Rate : 320k
Sample Encoding: MPEG audio (layer I, II or III)
Comments :
Title=Lost In Life
Artist=Der Tod
Album=Der Tod
Tracknumber=3
Year=1998
Genre=Black Metal



Register


Go to the top of the page
  Insert nick Quick quote
+Quote Post

Reply to this topicStart new topic
1 User(s) are reading this topic (1 Guests and 0 Anonymous Users)
0 Members:

 



- Lo-Fi Version Support form
Copyrights and abuse reports form
Time is now: 17th October 2018 - 19:15:27