Welcome Guest ( Log In | Register )

 
Reply to this topicStart new topic
> Black Mass Confession - Fury (2018), Groove/Southern Metal
post Apr 15 2018, 09:23:45
Post #1

Аннигилятор пивА
Group Icon
Group: V.I.P
Posts: 48,124
Releases: 14600
From: Koenigsberg - TILZIT
On Forums: 12 years 2 months
Thanks: 321436 time(s)
Russian Federation


(IMG:https://metalarea.org/images/audiocovers/2018_Apr/acov_tid304699_thumb.jpg)

*Artist: Black Mass Confession
*Album: Fury
*Year: 2018
*Genre: Groove/Southern Metal
*Country: United States (IMG:https://metalarea.org/forum/style_images/flags/United%20States.png)
*Format: mp3@CBR320kbps
*Size: 137MB

Tracklist:
01. Come Get Some
02. After Forever
03. Bare Another Cross
04. Forever Strong
05. None Shall Remain
06. Wake of Aggression
07. Fury
08. Explode
09. Refuse to Fall
10. Random Acts of Violence
11. My Soul to Take
12. Never Back Down
******************************
Total playing time: 1:00:17

Extended info


Technical info
(IMG:https://metalarea.org/images/spectrogram/2018_Apr/42cff5b47918292013220d27bc29e24e.png)
Input File: 07. Fury.mp3
Channels : 2
Sample Rate : 44100
Precision : 16-bit
Duration : 00:04:12.66 = 11142174 samples = 18949.3 CDDA sectors
File Size : 10.1M
Bit Rate : 320k
Sample Encoding: MPEG audio (layer I, II or III)
Comments :
Title=Fury
Artist=Black Mass Confession
Album=Fury
Tracknumber=7/12
Year=2018



Register


Thanks:
Go to the top of the page
  Insert nick Quick quote
+Quote Post

Reply to this topicStart new topic
2 User(s) are reading this topic (2 Guests and 0 Anonymous Users)
0 Members:

 



- Lo-Fi Version Support form
Copyrights and abuse reports form
Time is now: 21st August 2018 - 20:18:10