Welcome Guest ( Log In | Register )

> Releases Upload / Добавление релизов

Добавить релиз тут / Click here to add release
Рекомендованные обменники / Recommended file shares

 
ОтветитьСоздать новую тему
> Urfaust & Ghoul-Cult - Ghoulfaust [split] (2016), Black Metal/Ambient | Black/Doom/Thrash Metal
post Apr 15 2018, 09:25:11
Post #1

...
Group Icon
Group: S-moderation team
Posts: 6,167
Releases: 1275
On Forums: 7 years 2 months
Thanks: 31189 time(s)
Unknown


(IMG:http://metalarea.org/images/audiocovers/2018_Apr/acov_tid304700_thumb.jpg)

*Artist: Urfaust & Ghoul-Cult
*Album: Ghoulfaust [split]
*Year: 2016
*Genre: Black Metal/Ambient | Black/Doom/Thrash Metal
*Country: Netherlands (IMG:http://metalarea.org/forum/style_images/flags/Netherlands.png) | Norway (IMG:http://metalarea.org/forum/style_images/flags/Norway.png)
*Format: mp3@VBR260kbps
*Size: 25MB

Tracklist:
Urfaust:
1. Vom Freien Tode 07:43
Ghoul-Cult:
2. To the Tombs 05:37
******************************
Total playing time: 13:20

Technical info
(IMG:http://metalarea.org/images/spectrogram/2018_Apr/e3ff092d7a4f934a9efa0fb93538ece6.png)
Input File: 02 To The Tombs.mp3
Channels : 2
Sample Rate : 44100
Precision : 16-bit
Duration : 00:05:37.11 = 14866551 samples = 25283.2 CDDA sectors
File Size : 10.9M
Bit Rate : 258k
Sample Encoding: MPEG audio (layer I, II or III)
Comments :
Title=To The Tombs
Artist=Ghoul-Cult
Album=Ghoulfaust
Tracknumber=02/2
Year=2016
Discnumber=1/1



Register


Вернуться к началу страницы
  Insert nick Quick quote
+Цитировать сообщение

ОтветитьСоздать новую тему
1 User(s) are reading this topic (1 Guests and 0 Anonymous Users)
0 Members:

 



- Lo-Fi Version Support form
Copyrights and abuse reports form
Time is now: 22nd May 2018 - 17:03:06