Welcome Guest ( Log In | Register )

> Winter Blackness - Freezing Aura Of Blackened Depths (2017), Black Metal
post Apr 15 2018, 09:33:16
Post #1

...
Group Icon
Group: S-moderation team
Posts: 7,741
Releases: 1299
On Forums: 7 years 9 months
Thanks: 37192 time(s)
Croatia


(IMG:http://metalarea.org/images/audiocovers/2018_Apr/acov_tid304701_thumb.jpg)

*Artist: Winter Blackness
*Album: Freezing Aura Of Blackened Depths
*Year: 2017
*Genre: Black Metal
*Country: Poland (IMG:http://metalarea.org/forum/style_images/flags/Poland.png)
*Format: mp3@CBR320kbps
*Size: 101MB

Tracklist:
1. Triumf nocnego przymierza 08:10
2. W otchłani wilczej przemiany 06:40
3. Zimowy rytuał spopielenia 07:34
4. Wędrując przez cienie ponurego księżyca 10:40
5. The Lost Forgotten Sad Spirit (Burzum cover) 11:05
******************************
Total playing time: 44:09

Extended info
Darker than Black Records CD, 500 copies. Also released by Tour de Garde on cassette.
Many thanks to sumeriarising for the rip!


Technical info
(IMG:http://metalarea.org/images/spectrogram/2018_Apr/b74e64788408579a098977d190f1aea1.png)
Input File: 01 Triumf nocnego przymierza.mp3
Channels : 2
Sample Rate : 44100
Precision : 16-bit
Duration : 00:08:10.21 = 21618129 samples = 36765.5 CDDA sectors
File Size : 19.6M
Bit Rate : 320k
Sample Encoding: MPEG audio (layer I, II or III)
Comments :
Title=Triumf nocnego przymierza
Artist=Winter Blackness
Album=Freezing Aura of Blackened Depths
Tracknumber=1
Year=2017
Genre=Black Metal



Register


Go to the top of the page
  Insert nick Quick quote
+Quote Post
 
Start new topic
Replies (1 - 2)
post Apr 16 2018, 08:40:05
Post #2

Четыре Литра
****
Group: Металариец
Posts: 333
Releases: 10
From: Подольск
On Forums: 9 years 6 months
Thanks: 380 time(s)
Russian Federation


мощнячком! (IMG:style_emoticons/default/banana.gif) (IMG:style_emoticons/default/true_black.gif)
второй трек можно здесь заценить
Go to the top of the page
  Insert nick Quick quote
+Quote Post
post Apr 18 2018, 10:02:34
Post #3

Семь Литров
*******
Group: Металариец
Posts: 766
Releases: 0
From: Новосибирск
On Forums: 9 years 3 months
Thanks: 204 time(s)
Russian Federation


Очередной зашифровавшийся польский нсбм? (IMG:style_emoticons/default/1488.gif)
Go to the top of the page
  Insert nick Quick quote
+Quote Post

Reply to this topicStart new topic
1 User(s) are reading this topic (1 Guests and 0 Anonymous Users)
0 Members:

 



- Lo-Fi Version Support form
Copyrights and abuse reports form
Time is now: 13th December 2018 - 09:10:29