Welcome Guest ( Log In | Register )

> Releases Upload / Добавление релизов

Добавить релиз тут / Click here to add release
Рекомендованные обменники / Recommended file shares

 
ОтветитьСоздать новую тему
> The Elysian Fields - Promo Tape [demo] (1995), Melodic Death/Black Metal (D)
post Apr 15 2018, 09:45:28
Post #1

...
Group Icon
Group: S-moderation team
Posts: 6,021
Releases: 1246
On Forums: 7 years 1 month
Thanks: 30366 time(s)
Unknown


(IMG:http://metalarea.org/images/audiocovers/2018_Apr/acov_tid304702_thumb.jpg)

*Artist: The Elysian Fields
*Album: Promo Tape [demo]
*Year: 1995
*Genre: Melodic Death/Black Metal
*Country: Greece (IMG:http://metalarea.org/forum/style_images/flags/Greece.png)
*Format: mp3@CBR320kbps
*Size: 27MB

Tracklist:
1. Elysian Fields 05:54
2. Father Forgive Them (For They Do Not Know) 05:50
******************************
Total playing time: 11:44

Extended info
Released under the band name "Elysian Fields".


Technical info
(IMG:http://metalarea.org/images/spectrogram/2018_Apr/6187e5143b8a50fbb8e4eb4a75b953d6.png)
Input File: 01 - Elysian Fields.mp3
Channels : 2
Sample Rate : 44100
Precision : 16-bit
Duration : 00:05:54.10 = 15615634 samples = 26557.2 CDDA sectors
File Size : 14.2M
Bit Rate : 320k
Sample Encoding: MPEG audio (layer I, II or III)
Comments :
Title=Elysian Fields
Artist=Elysian Fields
Album=Promo Tape
Tracknumber=1
Year=1995
Genre=Death Metal



Register


Вернуться к началу страницы
  Insert nick Quick quote
+Цитировать сообщение

ОтветитьСоздать новую тему
1 User(s) are reading this topic (1 Guests and 0 Anonymous Users)
0 Members:

 



- Lo-Fi Version Support form
Copyrights and abuse reports form
Time is now: 26th April 2018 - 04:58:41