Welcome Guest ( Log In | Register )

> Mephorash - The Third Woe [ep] (2018), Black Metal (D6)
post Apr 15 2018, 10:26:03
Post #1

Маньяк
**********
Group: Металариец
Posts: 1,406
Releases: 1094
From: Prešov
On Forums: 4 years 6 months
Thanks: 25598 time(s)
Slovakia


(IMG:http://metalarea.org/images/audiocovers/2018_Apr/acov_tid304703_thumb.jpg)

*Artist: Mephorash
*Album: The Third Woe [ep]
*Year: 2018
*Genre: Black Metal
*Country: Sweden (IMG:http://metalarea.org/forum/style_images/flags/Sweden.png)
*Format: mp3@CBR320kbps
*Size: 33MB

Tracklist:
1. 777: The Third Woe 06:41
2. The Odius Gospels 06:31
******************************
Total playing time: 13:12

Extended info
Shadow Records - SHADOW017


Technical info
(IMG:http://metalarea.org/images/spectrogram/2018_Apr/8cdb330632c6825e9baa05754a088cd0.png)
Input File: 01. 777 - Third Woe.mp3
Channels : 2
Sample Rate : 44100
Precision : 16-bit
Duration : 00:06:41.57 = 17709149 samples = 30117.6 CDDA sectors
File Size : 16.2M
Bit Rate : 323k
Sample Encoding: MPEG audio (layer I, II or III)
Comments :
Title=777: Third Woe
Artist=Mephorash
Album=The Third Woe
Tracknumber=01/02
Year=2018
Genre=Black Metal
Discnumber=1/1



Register


Go to the top of the page
  Insert nick Quick quote
+Quote Post
 
Start new topic
Replies (1 - 1)
post Apr 17 2018, 06:22:36
Post #2

Satan bless you!
**************
Group: Металариец
Posts: 3,275
Releases: 63
From: Москва
On Forums: 10 years 3 months
Thanks: 2819 time(s)
Russian Federation


Нудная тягомотина, еле дослушал(
Послушал предыдущие...такое впечатление, что полегчал на этой епихе саунд..попсоватее что-ли стал
Go to the top of the page
  Insert nick Quick quote
+Quote Post

Reply to this topicStart new topic
1 User(s) are reading this topic (1 Guests and 0 Anonymous Users)
0 Members:

 



- Lo-Fi Version Support form
Copyrights and abuse reports form
Time is now: 17th October 2018 - 06:42:46