Welcome Guest ( Log In | Register )

> Releases Upload / Добавление релизов

Добавить релиз тут / Click here to add release
Рекомендованные обменники / Recommended file shares

> Mask Of Prospero - The Observatory (2018), Atmospheric/Modern Progressive Metal
post Apr 15 2018, 12:46:02
Post #1

Аннигилятор пивА
Group Icon
Group: V.I.P
Posts: 46,651
Releases: 14002
From: Koenigsberg - TILZIT
On Forums: 11 years 10 months
Thanks: 309974 time(s)
Russian Federation


(IMG:https://metalarea.org/images/audiocovers/2018_Apr/acov_tid304705_thumb.jpg)

*Artist: Mask Of Prospero
*Album: The Observatory
*Year: 2018
*Genre: Atmospheric/Modern Progressive Metal
*Country: Greece (IMG:https://metalarea.org/forum/style_images/flags/Greece.png)
*Format: mp3@CBR320kbps
*Size: 81MB

Tracklist:
01. Dust in the Sky
02. Drown in Grey
03. Frozen in Time
04. The Portrait
05. The Journey
06. The Way Back Home
07. The Observatory
08. Ignorance
09. This Road Leads to Desolation
******************************
Total playing time: 35:13




Extended info
Mask of Prospero, a modern extreme progressive/atmospheric metal band from Athens, Greece. Our music draws influences from bands like TesseracT, Leprous, Gojira, The Ocean, Silent Planet and Russian Circles.
Biller Perakis - Bass
Eleni Nota - Drums (Lightfold, Simplefast)
Nikos Letsios - Guitars
Panagiotis Kottaras - Guitars
Chris Kontoulis - Vocals (ex-Fallen Arise)



Technical info
(IMG:https://metalarea.org/images/spectrogram/2018_Apr/c4ee681130fb9dfc959c462839d557f5.png)
Input File: 04 - Portrait.mp3
Channels : 2
Sample Rate : 44100
Precision : 16-bit
Duration : 00:00:00.24 = 10496 samples = 17.8503 CDDA sectors
File Size : 9.61M
Bit Rate : 323M
Sample Encoding: MPEG audio (layer I, II or III)
Comments :
Title=Portrait
Artist=Mask Of Prospero
Album=The Observatory
Tracknumber=4/9
Year=2018-18-20
Genre=Progressive Metal
Discnumber=1/1



Register


Thanks:
Вернуться к началу страницы
  Insert nick Quick quote
+Цитировать сообщение
 
Создать новую тему
Replies (1 - 2)
post Apr 15 2018, 17:44:47
Post #2

Аннигилятор пивА
Group Icon
Group: V.I.P
Posts: 46,651
Releases: 14002
From: Koenigsberg - TILZIT
On Forums: 11 years 10 months
Thanks: 309974 time(s)
Russian Federation


mirror
Register


Thanks:
Вернуться к началу страницы
  Insert nick Quick quote
+Цитировать сообщение
post Apr 15 2018, 20:36:18
Post #3

Мегаманьяк
***********
Group: Металариец
Posts: 1,744
Releases: 0
From: Odessa
On Forums: 10 years 1 month
Thanks: 607 time(s)
Ukraine


Вернуться к началу страницы
  Insert nick Quick quote
+Цитировать сообщение

ОтветитьСоздать новую тему
2 User(s) are reading this topic (2 Guests and 0 Anonymous Users)
0 Members:

 



- Lo-Fi Version Support form
Copyrights and abuse reports form
Time is now: 21st April 2018 - 10:25:36