Welcome Guest ( Log In | Register )

> Releases Upload / Добавление релизов

Добавить релиз тут / Click here to add release
Рекомендованные обменники / Recommended file shares

 
ОтветитьСоздать новую тему
> Mortuus Umbra - Catechism [ep] (2015), Black Metal
post Apr 15 2018, 13:58:23
Post #1

Маньяк
**********
Group: Металариец
Posts: 1,236
Releases: 949
From: Prešov
On Forums: 4 years 1 month
Thanks: 22036 time(s)
Slovakia


(IMG:http://metalarea.org/images/audiocovers/2018_Apr/acov_tid304706_thumb.jpg)

*Artist: Mortuus Umbra
*Album: Catechism [ep]
*Year: 2015
*Genre: Black Metal
*Country: Israel (IMG:http://metalarea.org/forum/style_images/flags/Israel.png)
*Format: mp3@VBR245kbps
*Size: 44MB

Tracklist:
1. XI VSN / Holy Procreation 08:31
2. Mother of All Nightmares 04:47
3. Omen to the Ancient One 05:15
4. Mors Stillam 03:58
******************************
Total playing time: 22:31



Extended info
Oration - ORA0011, vinyl, 2018.


Technical info
(IMG:http://metalarea.org/images/spectrogram/2018_Apr/789abd041d31f602ccca3e344d097e7f.png)
Input File: 01. XI VSN - Holy Procreation.mp3
Channels : 2
Sample Rate : 44100
Precision : 16-bit
Duration : 00:08:31.06 = 22537702 samples = 38329.4 CDDA sectors
File Size : 16.8M
Bit Rate : 263k
Sample Encoding: MPEG audio (layer I, II or III)
Comments :
Title=XI VSN / Holy Procreation
Artist=Mortuus Umbra
Album=Catechism
Tracknumber=01/04
Year=2018
Genre=Black Metal
Discnumber=1/1



Register


Вернуться к началу страницы
  Insert nick Quick quote
+Цитировать сообщение

ОтветитьСоздать новую тему
1 User(s) are reading this topic (1 Guests and 0 Anonymous Users)
0 Members:

 



- Lo-Fi Version Support form
Copyrights and abuse reports form
Time is now: 22nd May 2018 - 17:04:05