Welcome Guest ( Log In | Register )

 
Reply to this topicStart new topic
> Cremantur - The Prize Of Treason (2018), Raw Black Metal
post Apr 15 2018, 14:09:19
Post #1

Маньяк
**********
Group: Металариец
Posts: 1,355
Releases: 1053
From: Prešov
On Forums: 4 years 4 months
Thanks: 24228 time(s)
Slovakia


(IMG:http://metalarea.org/images/audiocovers/2018_Apr/acov_tid304707_thumb.jpg)

*Artist: Cremantur
*Album: The Prize Of Treason
*Year: 2018
*Genre: Raw Black Metal
*Country: United States (IMG:http://metalarea.org/forum/style_images/flags/United%20States.png)
*Format: mp3@VBR245kbps
*Size: 62MB

Tracklist:
1. Sharpening Blades
2. Burner Of Human Flesh
3. Merciless Rabid Persecution
4. Stirring The Flames Of Revenge
5. Behold The Blood Drenched Earth
6. Cruel Obedience
7. Unearthing Coffins
8. Death Stalker
9. The Invocation
10. Outer Body Visions
11. Your Destruction, Our Power
12. Nocturnal Fears
******************************
Total playing time: 32:13

Extended info
Perverse Homage - 031, tape, 2018.


Technical info
(IMG:http://metalarea.org/images/spectrogram/2018_Apr/7c5571455cafa06ae3b60e4e933d3764.png)
Input File: 02. Burner Of Human Flesh.mp3
Channels : 2
Sample Rate : 44100
Precision : 16-bit
Duration : 00:01:39.60 = 4392536 samples = 7470.3 CDDA sectors
File Size : 3.40M
Bit Rate : 273k
Sample Encoding: MPEG audio (layer I, II or III)
Comments :
Title=Burner Of Human Flesh
Artist=Cremantur
Album=The Prize Of Treason
Tracknumber=02/12
Year=2018
Genre=Black Metal
Discnumber=1/1



Register


Go to the top of the page
  Insert nick Quick quote
+Quote Post

Reply to this topicStart new topic
1 User(s) are reading this topic (1 Guests and 0 Anonymous Users)
0 Members:

 



- Lo-Fi Version Support form
Copyrights and abuse reports form
Time is now: 22nd August 2018 - 04:31:38