Welcome Guest ( Log In | Register )

 
Reply to this topicStart new topic
> Fall Of Carthage - Emma Green (2018), Groove Metal/Hardcore
post Apr 15 2018, 16:18:27
Post #1

Семь Литров
*******
Group: Металариец
Posts: 751
Releases: 261
From: Саранск
On Forums: 7 years 5 months
Thanks: 1960 time(s)
Russian Federation


(IMG:https://metalarea.org/images/audiocovers/2018_Apr/acov_tid304709_thumb.jpg)

*Artist: Fall Of Carthage
*Album: Emma Green
*Year: 2018
*Genre: Groove Metal/Hardcore
*Country: Germany (IMG:https://metalarea.org/forum/style_images/flags/Germany.png)
*Format: mp3@CBR320kbps
*Size: 72MB

Tracklist:
01. Signs Of Corruption
02. Priceless
03. Superior
04. Down There
05. Emma Green
06. Lies In Your Cup
07. Belongings
08. F.A. Gov
09. Dollarhungry
******************************
Total playing time: 30:42



Technical info
(IMG:https://metalarea.org/images/spectrogram/2018_Apr/e50f0fa0ec8a44cecce3c39edebca4a4.png)
Input File: 6 Lies in your Cup.mp3
Channels : 2
Sample Rate : 44100
Precision : 16-bit
Duration : 00:03:23.46 = 8972718 samples = 15259.7 CDDA sectors
File Size : 8.32M
Bit Rate : 327k
Sample Encoding: MPEG audio (layer I, II or III)
Comments :
Title=Lies in your Cup
Artist=Fall Of Carthage
Album=Emma Green
Tracknumber=6/9
Year=2018
Genre=9
Discnumber=1/1



Register


Thanks:
Go to the top of the page
  Insert nick Quick quote
+Quote Post

Reply to this topicStart new topic
1 User(s) are reading this topic (1 Guests and 0 Anonymous Users)
0 Members:

 



- Lo-Fi Version Support form
Copyrights and abuse reports form
Time is now: 17th October 2018 - 19:40:24