Welcome Guest ( Log In | Register )

> Releases Upload / Добавление релизов

Добавить релиз тут / Click here to add release
Рекомендованные обменники / Recommended file shares

 
ОтветитьСоздать новую тему
> Fall Of Carthage - Emma Green (2018), Groove Metal/Hardcore
post Apr 15 2018, 16:18:27
Post #1

Шесть Литров
******
Group: Металариец
Posts: 645
Releases: 227
From: Саранск
On Forums: 7 years 1 week
Thanks: 1698 time(s)
Russian Federation


(IMG:https://metalarea.org/images/audiocovers/2018_Apr/acov_tid304709_thumb.jpg)

*Artist: Fall Of Carthage
*Album: Emma Green
*Year: 2018
*Genre: Groove Metal/Hardcore
*Country: Germany (IMG:https://metalarea.org/forum/style_images/flags/Germany.png)
*Format: mp3@CBR320kbps
*Size: 72MB

Tracklist:
01. Signs Of Corruption
02. Priceless
03. Superior
04. Down There
05. Emma Green
06. Lies In Your Cup
07. Belongings
08. F.A. Gov
09. Dollarhungry
******************************
Total playing time: 30:42



Technical info
(IMG:https://metalarea.org/images/spectrogram/2018_Apr/e50f0fa0ec8a44cecce3c39edebca4a4.png)
Input File: 6 Lies in your Cup.mp3
Channels : 2
Sample Rate : 44100
Precision : 16-bit
Duration : 00:03:23.46 = 8972718 samples = 15259.7 CDDA sectors
File Size : 8.32M
Bit Rate : 327k
Sample Encoding: MPEG audio (layer I, II or III)
Comments :
Title=Lies in your Cup
Artist=Fall Of Carthage
Album=Emma Green
Tracknumber=6/9
Year=2018
Genre=9
Discnumber=1/1



Register


Thanks:
Вернуться к началу страницы
  Insert nick Quick quote
+Цитировать сообщение

ОтветитьСоздать новую тему
1 User(s) are reading this topic (1 Guests and 0 Anonymous Users)
0 Members:

 



- Lo-Fi Version Support form
Copyrights and abuse reports form
Time is now: 22nd May 2018 - 17:00:24