Welcome Guest ( Log In | Register )

> Rotten Light - III: Downfall To Black Axis And Liturgy (2018), Depressive Black Metal (D12)
post Apr 15 2018, 17:21:22
Post #1

Маньяк
**********
Group: Металариец
Posts: 1,254
Releases: 1049
From: Одесса
On Forums: 10 years 1 month
Thanks: 8182 time(s)
Ukraine


(IMG:http://metalarea.org/images/audiocovers/2018_Apr/acov_tid304710_thumb.jpg)

*Artist: Rotten Light
*Album: III: Downfall To Black Axis And Liturgy
*Year: 2018
*Genre: Depressive Black Metal
*Country: Spain (IMG:http://metalarea.org/forum/style_images/flags/Spain.png)
*Format: mp3@CBR320kbps
*Size: 164MB

Tracklist:
1. Last March of the Broken Ones 06:04
2. Enochian Hate Plage 04:48
3. Gates of Perdition 03:49
4. Pointless Selfdestructing Behavior Chains 04:45
5. Beneath the Black Axis of Our Flesh 06:56
6. Shards of Sanity 04:18
7. Truth Hurts More Than a Lie 03:43
8. The Blackest Coma 04:47
9. Plummet Down in Defilement 05:15
10. Philosophical Nonsense at the Edge of Catharsis 07:13
11. The Darkness Beckoning 06:25
12. Otra Noche De Mierda En Esta Puta Ciudad 09:03
13. The Beginning of the Liturgy of Death 01:47
******************************
Total playing time: 1:08:53



Extended info
Line - up:

Silence - Vocals, Guitars, Bass, Drums, Keyboards, Saxophone (Abaddon's Abyss, Shadow Frost, Suicidal Psychosis, Theslecre, Traumatic Memories, Occasum Solis, Cyanide Atmosphera, Doomvoid VIIV, Grimmist, Konrad, Mae'r Danae Sŵn, Nocturnal Graveland, The Eternal Chain, Theslecre, ex-2003 VB16, ex-Life Is My Prison... Death Is the Escape, ex-Silence in the Woods)
Erebus - Guitar, Keyboards (The Eternal Chain)

(IMG:https://www.metal-archives.com/images/3/5/4/0/3540365503_photo.jpg?5645)


Technical info
(IMG:http://metalarea.org/images/spectrogram/2018_Apr/e6f462d2b917c666368f84cc6e2248c9.png)
Input File: 02. Enochian Hate Plague.mp3
Channels : 2
Sample Rate : 48000
Precision : 16-bit
Duration : 00:04:48.36 = 13841424 samples ~ 21627.2 CDDA sectors
File Size : 11.6M
Bit Rate : 322k
Sample Encoding: MPEG audio (layer I, II or III)
Comments :
Title=Enochian Hate Plague
Artist=Rotten Light
Album=III: Downfall to Black Axis and Liturgy
Tracknumber=2
Year=2018
Genre=Depressive Black Metal



Register


Go to the top of the page
  Insert nick Quick quote
+Quote Post
 
Start new topic
Replies (1 - 1)
post Apr 18 2018, 00:18:56
Post #2

..ще до загибелі
**********
Group: Металариец
Posts: 1,145
Releases: 0
From: Мати Руських Міст
On Forums: 7 years 4 months
Thanks: 865 time(s)
Ukraine


материал как минимум слушабельный, или как максимум.
хотя депрой тут мало где попахивает. опять пост. половина треков - лишние.
Go to the top of the page
  Insert nick Quick quote
+Quote Post

Reply to this topicStart new topic
1 User(s) are reading this topic (1 Guests and 0 Anonymous Users)
0 Members:

 



- Lo-Fi Version Support form
Copyrights and abuse reports form
Time is now: 19th July 2018 - 18:30:48