Welcome Guest ( Log In | Register )

 
Reply to this topicStart new topic
> Abandoned Mortuary - Race Of Hypocrisy (2018), Death Metal/Grindcore
post Apr 15 2018, 17:36:01
Post #1

Маньяк
**********
Group: Металариец
Posts: 1,346
Releases: 1137
From: Одесса
On Forums: 10 years 2 months
Thanks: 8837 time(s)
Ukraine


(IMG:http://metalarea.org/images/audiocovers/2018_Apr/acov_tid304711_thumb.jpg)

*Artist: Abandoned Mortuary
*Album: Race Of Hypocrisy
*Year: 2018
*Genre: Death Metal/Grindcore
*Country: Hungary (IMG:http://metalarea.org/forum/style_images/flags/Hungary.png)
*Format: mp3@CBR320kbps
*Size: 81MB

Tracklist:
1. Unheard Screams 01:09
2. Sacrifice to Moloch 04:36
3. Race of Hypocrisy 05:25
4. Perishing Hope 03:17
5. Altar of the Golden Calf 03:16
6. King of Grass 02:21
7. Unseen 06:01
8. A Voice in the Desert 00:25
9. Deep Secrets 03:21
10. Dry Bones 04:50
******************************
Total playing time: 34:41



Extended info
Line - up:

Gergely Kovács - Vocals, Guitars, Bass, Drum programming (Internal Excavation, Irgalom, Number Our Days, The Exit Wound, Parched Throat, The Arbiter, The Grey Eminence, Varsa, ex-Atavism, ex-Devon, ex-The Wheelers)

(IMG:https://www.metal-archives.com/images/3/5/4/0/3540394309_photo.jpg?2608)


Technical info
(IMG:http://metalarea.org/images/spectrogram/2018_Apr/40b355f2ea8d923b1fb4cbea111cdadc.png)
Input File: 05. Altar Of The Golden Calf.mp3
Channels : 2
Sample Rate : 48000
Precision : 16-bit
Duration : 00:03:16.37 = 9425808 samples ~ 14727.8 CDDA sectors
File Size : 7.86M
Bit Rate : 320k
Sample Encoding: MPEG audio (layer I, II or III)
Comments :
Title=Altar Of The Golden Calf
Artist=Abandoned Mortuary
Album=Race Of Hypocrisy
Tracknumber=5
Year=2018
Genre=Death Metal / Grindcore



Register


Go to the top of the page
  Insert nick Quick quote
+Quote Post

Reply to this topicStart new topic
1 User(s) are reading this topic (1 Guests and 0 Anonymous Users)
0 Members:

 



- Lo-Fi Version Support form
Copyrights and abuse reports form
Time is now: 21st August 2018 - 16:37:49