Welcome Guest ( Log In | Register )

 
Reply to this topicStart new topic
> Hooch Head - Mercy [ep] (2018), Sludge/Stoner Metal
post Apr 15 2018, 17:58:27
Post #1

Маньяк
**********
Group: Металариец
Posts: 1,346
Releases: 1137
From: Одесса
On Forums: 10 years 2 months
Thanks: 8838 time(s)
Ukraine


(IMG:http://metalarea.org/images/audiocovers/2018_Apr/acov_tid304712_thumb.jpg)

*Artist: Hooch Head
*Album: Mercy [ep]
*Year: 2018
*Genre: Sludge/Stoner Metal
*Country: United States (IMG:http://metalarea.org/forum/style_images/flags/United%20States.png)
*Format: mp3@CBR320kbps
*Size: 52MB

Tracklist:
1. Witch Prayer 04:09
2. Space Huffer 05:17
3. Derision 03:15
4. Wormed 02:36
5. Skinsman 06:45
******************************
Total playing time: 22:02



Technical info
(IMG:http://metalarea.org/images/spectrogram/2018_Apr/b4ccbd13325b5abc618fa3c3c3927d9f.png)
Input File: 05. Skinsman.mp3
Channels : 2
Sample Rate : 48000
Precision : 16-bit
Duration : 00:06:45.07 = 19443600 samples ~ 30380.6 CDDA sectors
File Size : 16.2M
Bit Rate : 320k
Sample Encoding: MPEG audio (layer I, II or III)
Comments :
Title=Skinsman
Artist=Hooch Head
Album=Mercy (EP)
Tracknumber=5
Year=2018
Genre=Sludge / Stoner Metal



Register


Thanks:
Go to the top of the page
  Insert nick Quick quote
+Quote Post

Reply to this topicStart new topic
1 User(s) are reading this topic (1 Guests and 0 Anonymous Users)
0 Members:

 



- Lo-Fi Version Support form
Copyrights and abuse reports form
Time is now: 21st August 2018 - 20:17:51