Welcome Guest ( Log In | Register )

> Releases Upload / Добавление релизов

Добавить релиз тут / Click here to add release
Рекомендованные обменники / Recommended file shares

 
ОтветитьСоздать новую тему
> Angel Of Nature - Still Alive (2018), Atmospheric Black Metal (D8)
post Apr 15 2018, 18:37:12
Post #1

Четыре Литра
****
Group: Металариец
Posts: 336
Releases: 7
From: Яреськи
On Forums: 10 years 1 month
Thanks: 123 time(s)
Ukraine


(IMG:https://metalarea.org/images/audiocovers/2018_Apr/acov_tid304714_thumb.jpg)

*Artist: Angel Of Nature
*Album: Still Alive
*Year: 2018
*Genre: Atmospheric Black Metal
*Country: Ukraine (IMG:https://metalarea.org/forum/style_images/flags/Ukraine.png)
*Format: mp3@VBR220kbps
*Size: 64MB

Tracklist:
01. Autumn Day
02. Leave Behind The Sorrow
03. If Sun Never Comes Up...
04. Keep My Warm
05. Still Alive
06. Spirit Of Mountain Forests
07. The End Of Seasons
******************************
Total playing time: 37:49



Technical info
(IMG:https://metalarea.org/images/spectrogram/2018_Apr/243767ce909fc0151fc1cbba5f822a09.png)
Input File: 01 Autumn day.mp3
Channels : 2
Sample Rate : 44100
Precision : 16-bit
Duration : 00:06:51.82 = 18161262 samples = 30886.5 CDDA sectors
File Size : 11.8M
Bit Rate : 229k
Sample Encoding: MPEG audio (layer I, II or III)
Comments :
Title=Autumn day
Album=Still alive
Year=2018



Register


Вернуться к началу страницы
  Insert nick Quick quote
+Цитировать сообщение

ОтветитьСоздать новую тему
2 User(s) are reading this topic (2 Guests and 0 Anonymous Users)
0 Members:

 



- Lo-Fi Version Support form
Copyrights and abuse reports form
Time is now: 21st April 2018 - 10:31:08