Welcome Guest ( Log In | Register )

> Forum rules / Правила раздела

Here go releases which can't go to New releases forums due lack of information, stolen links or incorrect data and just founded in other sites links with minimum info. Reissue of this releases through Add release form with added/corrected data, info and own links highly welcomed.

Сюда уходят релизы, не пропущенные в основные релизные форумы по причинам отсутствия, недостаточности или неверности/некорректности сопровождающей информации, содержащие ссылки, указывающие на файлы, залитые не автором темы, а так же просто найденные где-то ссылки с минимумом информации. Переоформление тем отсюда через форму Добавления релиза с перезаливкой ссылок крайне приветствуется.

> ID:VISION - Der Tyrann [single] (2018), Death/Black Metal (D5)
post Apr 15 2018, 19:54:04
Post #1

Литр
*
Group: Подсевший
Posts: 56
Releases: 12
From: Göteborg, Sweden
On Forums: 12 years 3 months
Thanks: 170 time(s)
Sweden


(IMG:http://metalarea.org/images/audiocovers/2018_Apr/acov_tid304716_thumb.jpg)

*Artist: ID:VISION
*Album: Der Tyrann [single]
*Year: 2018
*Genre: Death/Black Metal
*Country: Germany (IMG:http://metalarea.org/forum/style_images/flags/Germany.png)
*Format: mp3@CBR320kbps
*Size: 15MB

Tracklist:
01 Der Tyrann
******************************
Total playing time: 5:25



Technical info
(IMG:http://metalarea.org/images/spectrogram/2018_Apr/de6dc46edc1282f33388915cf710c603.png)
Input File: 01 Der Tyrann.mp3
Channels : 2
Sample Rate : 44100
Precision : 16-bit
Duration : 00:05:25.15 = 14338895 samples = 24385.9 CDDA sectors
File Size : 14.8M
Bit Rate : 363k
Sample Encoding: MPEG audio (layer I, II or III)
Comments :
Title=Der Tyrann
Artist=ID:VISION
Album=Der Tyrann [Promo]
Tracknumber=1/1
Year=2018
Genre=9



Register
Go to the top of the page
  Insert nick Quick quote
+Quote Post
 
Start new topic
Replies (1 - 2)
post Apr 16 2018, 10:04:39
Post #2

Маньяк
**********
Group: Металариец
Posts: 1,101
Releases: 0
From: Беларусь
On Forums: 10 years 7 months
Thanks: 398 time(s)
Russian Federation


Они из Минска, что ли в Германию перебрались?
Go to the top of the page
  Insert nick Quick quote
+Quote Post
post Apr 16 2018, 14:03:13
Post #3

Шесть Литров
******
Group: Металариец
Posts: 507
Releases: 0
On Forums: 10 years 10 months
Thanks: 133 time(s)
Russian Federation


ЦИТАТА(Moonshtook @ Apr 16 2018, 12:04:39) *
Они из Минска, что ли в Германию перебрались?


Шифруются, чтобы батька не достал...
Видимо, ему этот релиз и посвящен, судя по обложке и названию (IMG:style_emoticons/default/1488.gif)
Go to the top of the page
  Insert nick Quick quote
+Quote Post

Reply to this topicStart new topic
2 User(s) are reading this topic (2 Guests and 0 Anonymous Users)
0 Members:

 



- Lo-Fi Version Support form
Copyrights and abuse reports form
Time is now: 19th August 2018 - 04:31:33