Welcome Guest ( Log In | Register )

> Releases Upload / Добавление релизов

Добавить релиз тут / Click here to add release
Рекомендованные обменники / Recommended file shares

 
ОтветитьСоздать новую тему
> Suici.De.Pression - Suici.De.Pression (2017), Black Metal
post Apr 15 2018, 21:42:06
Post #1

Правь статус, ####!111
**************
Group: Металариец
Posts: 12,978
Releases: 9229
From: Г.Харьков
On Forums: 6 years 1 week
Thanks: 150080 time(s)
Unknown


(IMG:http://metalarea.org/images/audiocovers/2018_Apr/acov_tid304717_thumb.jpg)

*Artist: Suici.De.Pression
*Album: Suici.De.Pression
*Year: 2017
*Genre: Black Metal
*Country: Italy (IMG:http://metalarea.org/forum/style_images/flags/Italy.png)
*Format: mp3@VBR278kbps
*Size: 75MB

Tracklist:
1. De.Pression 20:17
2. Despair 10:06
3. Paranoia 07:57
******************************
Total playing time: 38:20



Extended info
Scene CD-Rip
Syrinx All instruments, Vocals, Lyrics


Technical info
(IMG:http://metalarea.org/images/spectrogram/2018_Apr/329307b1638a9ac3474f49bf8b4092c8.png)
Input File: 03-suicidepression-paranoia.mp3
Channels : 2
Sample Rate : 44100
Precision : 16-bit
Duration : 00:07:59.00 = 21123900 samples = 35925 CDDA sectors
File Size : 17.4M
Bit Rate : 291k
Sample Encoding: MPEG audio (layer I, II or III)
Comments :
Title=Paranoia
Artist=Suici.De.Pression
Album=Suici.De.Pression
Tracknumber=3/3
Year=2017-00-00
Genre=Black Metal



Register


Вернуться к началу страницы
  Insert nick Quick quote
+Цитировать сообщение

ОтветитьСоздать новую тему
1 User(s) are reading this topic (1 Guests and 0 Anonymous Users)
0 Members:

 



- Lo-Fi Version Support form
Copyrights and abuse reports form
Time is now: 22nd May 2018 - 17:04:45