Welcome Guest ( Log In | Register )

> Diligence - Abundance In Exertion (2018), Death Metal (D5)
post Apr 15 2018, 23:34:51
Post #1

Правь статус, ####!111
**************
Group: Металариец
Posts: 13,943
Releases: 9727
From: Г.Харьков
On Forums: 6 years 3 months
Thanks: 159626 time(s)
Unknown


(IMG:http://metalarea.org/images/audiocovers/2018_Apr/acov_tid304718_thumb.jpg)

*Artist: Diligence
*Album: Abundance In Exertion
*Year: 2018
*Genre: Death Metal
*Country: Czech Republic (IMG:http://metalarea.org/forum/style_images/flags/Czech%20Republic.png)
*Format: mp3@CBR320kbps
*Size: 110MB

Tracklist:
1. This Queue Metaphor 05:06
2. Bleeding Fractals 04:02
3. Intersection of Free Empathy 03:50
4. Through Black Aura 05:16
5. Into Hydra's Lair 06:02
6. In Stillness 03:28 instrumental
7. Conclave of Doubts 04:09
8. Violent Regeneration 05:03
9. Hypothermia 04:17
10. Lifetime of Obsidian Verity 05:48
******************************
Total playing time: 47:01


Preview 2


Extended info
Milan - Bass (Devast)
Honza - Drums
Igor - Guitars (Demimonde, The Corona Lantern)
Dája - Vocals, Lyrics (Keep on Rotting, The Corona Lantern)
Jakub Durec - Guitars (Soul Decoder)


Technical info
(IMG:http://metalarea.org/images/spectrogram/2018_Apr/2dfe55a382a8d9646914b5331e7a7431.png)
Input File: 02 - Bleeding Fractals.mp3
Channels : 2
Sample Rate : 44100
Precision : 16-bit
Duration : 00:04:02.94 = 10713566 samples = 18220.4 CDDA sectors
File Size : 9.92M
Bit Rate : 327k
Sample Encoding: MPEG audio (layer I, II or III)
Comments :
Title=Bleeding Fractals
Artist=Diligence
Album=Abundance In Exertion
Tracknumber=02/10
Year=2018
Genre=Progressive Death Metal



Register


Go to the top of the page
  Insert nick Quick quote
+Quote Post
 
Start new topic
Replies (1 - 4)
post Apr 16 2018, 02:23:31
Post #2

Правь статус, ####!111
**************
Group: Металариец
Posts: 13,943
Releases: 9727
From: Г.Харьков
On Forums: 6 years 3 months
Thanks: 159626 time(s)
Unknown


Register


Go to the top of the page
  Insert nick Quick quote
+Quote Post
post Apr 16 2018, 05:39:00
Post #3

Аннигилятор пивА
Group Icon
Group: V.I.P
Posts: 48,076
Releases: 14582
From: Koenigsberg - TILZIT
On Forums: 12 years 2 months
Thanks: 321089 time(s)
Russian Federation


Modern death metal - притехниченно, придэткоренно и с типичной рычащей теткой на вокале... в обчем без грува и модерн фишек былоб более чем неплохо... но, что есть, два стула, для мейнстрим дэта наверно нормально, если есть такой.


Thanks:
(1) AHBAnep,
Go to the top of the page
  Insert nick Quick quote
+Quote Post
post Apr 16 2018, 06:36:28
Post #4

Правь статус, ####!111
**************
Group: Металариец
Posts: 13,943
Releases: 9727
From: Г.Харьков
On Forums: 6 years 3 months
Thanks: 159626 time(s)
Unknown


ЦИТАТА(aesteticvice @ 16th April 2018 - 05:39:00) *
Modern death metal - притехниченно, придэткоренно и с типичной рычащей теткой на вокале... в обчем без грува и модерн фишек былоб более чем неплохо... но, что есть, два стула, для мейнстрим дэта наверно нормально, если есть такой.

Твои завистливые испражнения -ожидаемы!Так же как и твои сочинения в твоих подобных темах)))
Register

на нем совсем другая музыка и вокал, пропали брейки, стало больше скорости и тех наворотов, вокал теперь без воплей и грубее, (IMG:style_emoticons/default/15.gif)
завистливые-потому что если бы ты его постил,то я уверен что теги были бы прог дет как минимум,если ты такое груво-деткоровище называешь техно детом (IMG:style_emoticons/default/1488.gif) (IMG:style_emoticons/default/bye.gif)
Go to the top of the page
  Insert nick Quick quote
+Quote Post
post Apr 16 2018, 07:00:58
Post #5

Аннигилятор пивА
Group Icon
Group: V.I.P
Posts: 48,076
Releases: 14582
From: Koenigsberg - TILZIT
On Forums: 12 years 2 months
Thanks: 321089 time(s)
Russian Federation


ЦИТАТА(Samaritianin @ Apr 16 2018, 05:36:28) *
завистливые

завистливые

"Не надо мне по два раза повторять одно и то же! Мне и с первого раза до фонаря." ©
Go to the top of the page
  Insert nick Quick quote
+Quote Post

Reply to this topicStart new topic
2 User(s) are reading this topic (2 Guests and 0 Anonymous Users)
0 Members:

 



- Lo-Fi Version Support form
Copyrights and abuse reports form
Time is now: 19th August 2018 - 04:33:40