Welcome Guest ( Log In | Register )

> Gorgon - Twilight Of Forgotten Reign [bootleg] (1992), Black Metal (D)
post Apr 16 2018, 00:42:40
Post #1

Четыре Литра
****
Group: Металариец
Posts: 361
Releases: 17
On Forums: 5 months 3 weeks
Thanks: 629 time(s)
Unknown


(IMG:http://metalarea.org/images/audiocovers/2018_Apr/acov_tid304719_thumb.jpg)

*Artist: Gorgon
*Album: Twilight Of Forgotten Reign [bootleg]
*Year: 1992
*Genre: Black Metal
*Country: France (IMG:http://metalarea.org/forum/style_images/flags/France.png)
*Format: mp3@CBR192kbps
*Size: 22MB

Tracklist:
01.Twilight Of Forgotten Reign
02.Call From Unknows Deaths
03.Servant Of The Lie
******************************
Total playing time: 16:47

Extended info
Cassette, Single Sided, Unofficial Release
Recorded at Antibes (France) in 1992 A.S.
INFO DISCOGS


Technical info
(IMG:http://metalarea.org/images/spectrogram/2018_Apr/0187baf4eda9de85c043deaa840937bd.png)
Input File: 01 - twilight of forgotten reign.mp3
Channels : 2
Sample Rate : 44100
Precision : 16-bit
Duration : 00:05:23.94 = 14285886 samples = 24295.7 CDDA sectors
File Size : 7.78M
Bit Rate : 192k
Sample Encoding: MPEG audio (layer I, II or III)
Comments :
Title=twilight of forgotten reign
Artist=Gorgon
Album=Twilight Of Forgotten Reign



Register


Вернуться к началу страницы
  Insert nick Quick quote
+Цитировать сообщение
 
Создать новую тему
Replies (1 - 2)
post Apr 16 2018, 08:02:30
Post #2

Satan bless you!
**************
Group: Металариец
Posts: 3,023
Releases: 63
From: Москва
On Forums: 9 years 9 months
Thanks: 2655 time(s)
Russian Federation


https://www.metal-archives.com/images/1/1/8...11808_photo.jpg
напоминает фото к анонсу фильмов)


Thanks:
Вернуться к началу страницы
  Insert nick Quick quote
+Цитировать сообщение
post Apr 16 2018, 08:15:50
Post #3

Четыре Литра
****
Group: Металариец
Posts: 361
Releases: 17
On Forums: 5 months 3 weeks
Thanks: 629 time(s)
Unknown


Этот фильм начался несколько позднее. В 92 для него еще даже не был написан сценарий. (IMG:style_emoticons/default/smile1.gif)


Thanks:
(1) RUSP73,
Вернуться к началу страницы
  Insert nick Quick quote
+Цитировать сообщение

ОтветитьСоздать новую тему
1 User(s) are reading this topic (1 Guests and 0 Anonymous Users)
0 Members:

 



- Lo-Fi Version Support form
Copyrights and abuse reports form
Time is now: 26th April 2018 - 05:00:50