Welcome Guest ( Log In | Register )

> Releases Upload / Добавление релизов

Добавить релиз тут / Click here to add release
Рекомендованные обменники / Recommended file shares

> Red Soil - Nemesis (2018), Modern Melodic Death Metal
post Apr 16 2018, 01:31:33
Post #1

Правь статус, ####!111
**************
Group: Металариец
Posts: 12,704
Releases: 9093
From: Г.Харьков
On Forums: 5 years 11 months
Thanks: 147090 time(s)
Unknown


(IMG:http://metalarea.org/images/audiocovers/2018_Apr/acov_tid304720_thumb.jpg)

*Artist: Red Soil
*Album: Nemesis
*Year: 2018
*Genre: Modern Melodic Death Metal
*Country: Spain (IMG:http://metalarea.org/forum/style_images/flags/Spain.png)
*Format: mp3@CBR320kbps
*Size: 67MB

Tracklist:
01. Chaos
02. The Stolen Paradise
03. Overrated
04. Age of Rebelion
05. Heroes
06. Shattered Light
07. My Name, my Enemy
08. The Story About Faith
******************************
Total playing time: 31:30



Extended info
Néstor Balaguer (vocals)
·Fabio Doppioni (rhythm guitar)
·Aitor Yerbes (lead guitar)
·Álvaro Pros (bass)
·Guillem Chesa (drums)
·Néstor Viciano (keys&Fx's)



Technical info
(IMG:http://metalarea.org/images/spectrogram/2018_Apr/34122733b3b2ff7b596484cd507cfae1.png)
Input File: 03 Overrated.mp3
Channels : 2
Sample Rate : 44100
Precision : 16-bit
Duration : 00:04:22.40 = 11571884 samples = 19680.1 CDDA sectors
File Size : 10.6M
Bit Rate : 322k
Sample Encoding: MPEG audio (layer I, II or III)
Comments :
Title=Overrated
Artist=Red Soil
Album=Nemesis
Tracknumber=3/8
Year=2018
Genre=Metal
Discnumber=1/1



Register


Вернуться к началу страницы
  Insert nick Quick quote
+Цитировать сообщение
 
Создать новую тему
Replies (1 - 5)
post Apr 16 2018, 02:20:48
Post #2

Правь статус, ####!111
**************
Group: Металариец
Posts: 12,704
Releases: 9093
From: Г.Харьков
On Forums: 5 years 11 months
Thanks: 147090 time(s)
Unknown


Register


Thanks:
Вернуться к началу страницы
  Insert nick Quick quote
+Цитировать сообщение
post Apr 16 2018, 07:48:31
Post #3

MDM-Thrash Metal
**************
Group: Металариец
Posts: 6,537
Releases: 404
From: Одесса
On Forums: 10 years 8 months
Thanks: 12483 time(s)
Ukraine


Капец какой противный оруще-кричащий вокал (IMG:style_emoticons/default/fear.gif)
Вернуться к началу страницы
  Insert nick Quick quote
+Цитировать сообщение
post Apr 16 2018, 13:01:12
Post #4

тебе 27, а ты все реверсами балуешься
**********
Group: Металариец
Posts: 1,350
Releases: 4
From: SPB
On Forums: 9 years 8 months
Thanks: 339 time(s)
Russian Federation


ЦИТАТА(Andrew @ Apr 16 2018, 09:48:31) *
Капец какой противный оруще-кричащий вокал (IMG:style_emoticons/default/fear.gif)


Я держался пару песен - музыка тащит, но вокал кнеш долго не могу слушать (IMG:style_emoticons/default/smile2.gif)
Вернуться к началу страницы
  Insert nick Quick quote
+Цитировать сообщение
post Apr 16 2018, 13:12:55
Post #5

Ледоруб
**************
Group: Металариец
Posts: 19,248
Releases: 0
From: Санкт-Петербург
On Forums: 8 years 7 months
Thanks: 6295 time(s)
Russian Federation


Тут нужен Мимитрий.
Вернуться к началу страницы
  Insert nick Quick quote
+Цитировать сообщение
post Apr 16 2018, 18:09:53
Post #6

Ищущий
****
Group: Металариец
Posts: 370
Releases: 0
From: Украина
On Forums: 9 years 9 months
Thanks: 12 time(s)
Ukraine


вокал действительно ужасный
Вернуться к началу страницы
  Insert nick Quick quote
+Цитировать сообщение

ОтветитьСоздать новую тему
1 User(s) are reading this topic (1 Guests and 0 Anonymous Users)
0 Members:

 



- Lo-Fi Version Support form
Copyrights and abuse reports form
Time is now: 26th April 2018 - 04:57:18