Welcome Guest ( Log In | Register )

 
Reply to this topicStart new topic
> BleedSkin - The Rotten One [ep] (2018), Death Metal
post Apr 16 2018, 02:35:37
Post #1

Правь статус, ####!111
**************
Group: Металариец
Posts: 15,297
Releases: 10446
From: Г.Харьков
On Forums: 6 years 7 months
Thanks: 173137 time(s)
Unknown


(IMG:http://metalarea.org/images/audiocovers/2018_Apr/acov_tid304721_thumb.jpg)

*Artist: BleedSkin
*Album: The Rotten One [ep]
*Year: 2018
*Genre: Death Metal
*Country: Belgium (IMG:http://metalarea.org/forum/style_images/flags/Belgium.png)
*Format: mp3@CBR320kbps
*Size: 46MB

Tracklist:
1. One Love One Kill 03:27
2. The Rotten One 04:43
3. Unfrozen 03:17
4. The Corpse Taker 04:59
5. BleedSkin 03:36
******************************
Total playing time: 20:02




Extended info
Rémy Adam Bass (2016-present)
Tom Massart Drums (2016-present)
See also: ex-Ardwynn
Céline Mazay Guitars (2016-present)
Logan Dykens Vocals, Guitars (2016-present)


Technical info
(IMG:http://metalarea.org/images/spectrogram/2018_Apr/d8f901e2c4dfe99a7fbb5b75717e7c73.png)
Input File: 02 - The Rotten One.mp3
Channels : 2
Sample Rate : 44100
Precision : 16-bit
Duration : 00:04:43.89 = 12519329 samples = 21291.4 CDDA sectors
File Size : 11.4M
Bit Rate : 320k
Sample Encoding: MPEG audio (layer I, II or III)
Comments :
Title=The Rotten One
Artist=BleedSkin
Album=The Rotten One
Tracknumber=2
Year=2018
Genre=Death Metal



Register


Go to the top of the page
  Insert nick Quick quote
+Quote Post

Reply to this topicStart new topic
1 User(s) are reading this topic (1 Guests and 0 Anonymous Users)
0 Members:

 



- Lo-Fi Version Support form
Copyrights and abuse reports form
Time is now: 10th December 2018 - 09:55:24