Welcome Guest ( Log In | Register )

> Nefilim - Cataclismo Social (2018), Thrash/Death Metal (D4)
post Apr 16 2018, 05:01:38
Post #1
BAN
Banned till
Oct 20 2018, 09:33:06



(IMG:http://metalarea.org/images/audiocovers/2018_Apr/acov_tid304722_thumb.jpg)

*Artist: Nefilim
*Album: Cataclismo Social
*Year: 2018
*Genre: Thrash/Death Metal
*Country: Nicaragua (IMG:http://metalarea.org/forum/style_images/flags/Nicaragua.png)
*Format: mp3@CBR320kbps
*Size: 100MB

Tracklist:
1. El Fruto del Odio 01:22
2. Cataclismo Social 03:29
3. Esvastico Tirano 05:01
4. Monopolio 04:53
5. El Umbral de la Muerte 04:07
6. En los Cimientos de la Destrucción 03:56
7. El Demonio de las Brumas 04:15
8. Programa Amorterazo 04:48
9. En los Ochentas 05:44
10. Ecos de Muerte 05:34
******************************
Total playing time: 43:09




Extended info
Cristopher Lopez Bass
Ricardo Antonio Drums
Dani Lopez Guitars
Juan Carlos Hernandez Vocals (lead)


Technical info
(IMG:http://metalarea.org/images/spectrogram/2018_Apr/e5adcfbf549a26f480fbd92224989126.png)
Input File: 03 - Esvastico Tirano.mp3
Channels : 2
Sample Rate : 44100
Precision : 16-bit
Duration : 00:05:01.48 = 13295312 samples = 22611.1 CDDA sectors
File Size : 12.2M
Bit Rate : 324k
Sample Encoding: MPEG audio (layer I, II or III)
Comments :
Title=Esvastico Tirano
Artist=Nefilim
Album=Cataclismo Social
Tracknumber=3/10
Year=2018



Register


Go to the top of the page
  Insert nick Quick quote
+Quote Post
 
Start new topic
Replies (1 - 1)
post Apr 16 2018, 09:20:24
Post #2
BAN
Banned till
Oct 20 2018, 09:33:06



Register


Go to the top of the page
  Insert nick Quick quote
+Quote Post

Reply to this topicStart new topic
1 User(s) are reading this topic (1 Guests and 0 Anonymous Users)
0 Members:

 



- Lo-Fi Version Support form
Copyrights and abuse reports form
Time is now: 17th October 2018 - 20:12:57