Welcome Guest ( Log In | Register )

> Cianuro - Resistencia (2018), Thrash Metal/Crossover (D4)
post Apr 16 2018, 05:24:30
Post #1
BAN
Banned till
Oct 20 2018, 09:33:06



(IMG:http://metalarea.org/images/audiocovers/2018_Apr/acov_tid304723_thumb.jpg)

*Artist: Cianuro
*Album: Resistencia
*Year: 2018
*Genre: Thrash Metal/Crossover
*Country: Chile (IMG:http://metalarea.org/forum/style_images/flags/Chile.png)
*Format: mp3@CBR320kbps
*Size: 60MB

Tracklist:
1. Traficante 03:10
2. Resistencia 03:03
3. Paranoia, Muerte y Soledad 04:24
4. Medios de Control 01:41
5. Pateando Ratas 02:16 instrumental
6. Parasito 03:40
7. Ambición 03:58
8. Mientes 03:26
******************************
Total playing time: 25:38




Extended info
Manuel Belmar Bass (2012-present)
See also: Agresor
Sebastian Torres Drums (2012-present)
Matías Valdés Guitars, Vocals (2012-present)


Technical info
(IMG:http://metalarea.org/images/spectrogram/2018_Apr/f7db4b7f7fb133aa84c80e5e3d48b798.png)
Input File: 02 - Resistencia.mp3
Channels : 2
Sample Rate : 44100
Precision : 16-bit
Duration : 00:03:03.97 = 8113121 samples = 13797.8 CDDA sectors
File Size : 7.55M
Bit Rate : 328k
Sample Encoding: MPEG audio (layer I, II or III)
Comments :
Title=Resistencia
Artist=Cianuro
Album=Resistencia
Tracknumber=2/8
Year=2018



Register


Go to the top of the page
  Insert nick Quick quote
+Quote Post
 
Start new topic
Replies (1 - 1)
post Apr 16 2018, 09:18:37
Post #2
BAN
Banned till
Oct 20 2018, 09:33:06



Register


Thanks:
Go to the top of the page
  Insert nick Quick quote
+Quote Post

Reply to this topicStart new topic
1 User(s) are reading this topic (1 Guests and 0 Anonymous Users)
0 Members:

 



- Lo-Fi Version Support form
Copyrights and abuse reports form
Time is now: 17th October 2018 - 19:46:39