Welcome Guest ( Log In | Register )

 
Reply to this topicStart new topic
> The Earth And I - The Candleman And The Curtain (2018), Progressive Metal
post Apr 16 2018, 05:27:34
Post #1

Аннигилятор пивА
Group Icon
Group: V.I.P
Posts: 49,408
Releases: 15247
From: Koenigsberg - TILZIT
On Forums: 12 years 4 months
Thanks: 332772 time(s)
Russian Federation


(IMG:https://metalarea.org/images/audiocovers/2018_Apr/acov_tid304724_thumb.jpg)

*Artist: The Earth And I
*Album: The Candleman And The Curtain
*Year: 2018
*Genre: Progressive Metal
*Country: United States (IMG:https://metalarea.org/forum/style_images/flags/United%20States.png)
*Format: mp3@CBR320kbps
*Size: 139MB

Tracklist:
01. The Lake Under the Desert 00:56
02. I. CGMTC (Life in the Sunset Zone) 04:34
03. II. Little Frames 08:35
04. And Now for a Slight Departure 04:05
05. Sugar High 04:06
06. The Hollow Deluge 05:01
07. Skies like Fences 07:37
08. Ethereal 04:19
09. III. Skeletons on Parade 04:14
10. IV. She Abandons the Grey 12:37
11. V. The Allegory of the Flower, as Told by the Archivist 04:00
12. The Timekeeper 05:16
******************************
Total playing time: 1:05:20




Extended info
Kendyle Wolven (Lead Vocals)
Nick Petromilli (Bass Guitar, Vocals)
Daniel Siew (Guitar, Vocals)
Liam Zintz-Kunkel (Guitar)
Adam Susskind (Drums)


Technical info
(IMG:https://metalarea.org/images/spectrogram/2018_Apr/9827f95974b65b24f98ea7da07ce063f.png)
Input File: 05 Sugar High.mp3
Channels : 2
Sample Rate : 44100
Precision : 16-bit
Duration : 00:04:06.47 = 10869107 samples = 18484.9 CDDA sectors
File Size : 9.91M
Bit Rate : 322k
Sample Encoding: MPEG audio (layer I, II or III)
Comments :
Title=Sugar High
Artist=The Earth and I
Album=The Candleman and the Curtain
Tracknumber=5/12
Year=2017
Genre=9
Discnumber=1/1



Register


Go to the top of the page
  Insert nick Quick quote
+Quote Post

Reply to this topicStart new topic
1 User(s) are reading this topic (1 Guests and 0 Anonymous Users)
0 Members:

 



- Lo-Fi Version Support form
Copyrights and abuse reports form
Time is now: 17th October 2018 - 18:53:52