Welcome Guest ( Log In | Register )

 
Reply to this topicStart new topic
> Tomorrow's Outlook - A Voice Unheard (2018), Progressive Power Metal
post Apr 16 2018, 05:57:45
Post #1

Правь статус, ####!111
**************
Group: Металариец
Posts: 13,950
Releases: 9734
From: Г.Харьков
On Forums: 6 years 3 months
Thanks: 159782 time(s)
Unknown


(IMG:http://metalarea.org/images/audiocovers/2018_Apr/acov_tid304725_thumb.jpg)

*Artist: Tomorrow's Outlook
*Album: A Voice Unheard
*Year: 2018
*Genre: Progressive Power Metal
*Country: Norway (IMG:http://metalarea.org/forum/style_images/flags/Norway.png)
*Format: mp3@CBR320kbps
*Size: 166MB

Tracklist:
1. Within the World of Dreams 05:02
2. Descent 05:20
3. Through Shuttered Eyes 04:02
4. A Voice Unheard 05:34
5. Outlaw 05:32
6. Times of War 06:55
7. The Enemy 06:40
8. One Final Prayer 05:58
9. Fly Away 05:56
10. Nothing Shall Remain 06:59
11. Darkside of Aquarius (Bruce Dickinson cover) 06:53
12. Slave to the Evil Force (Aria cover) 06:52
******************************
Total playing time: 1:11:43



Extended info
Øystein K. Hanssen Guitars (lead)
See also: Cyclophonia, ex-Cat Eye, ex-Dominion Red
Tony "Thunder" Johannessen Vocals
See also: Thunderbolt
Andreas Stenseth Bass, Songwriting (2007-present)
See also: ex-Flame Thrower



Technical info
(IMG:http://metalarea.org/images/spectrogram/2018_Apr/d45b6599a8dcdc2f7adc67d9e3d36de6.png)
Input File: 02 - Descent.mp3
Channels : 2
Sample Rate : 44100
Precision : 16-bit
Duration : 00:05:20.24 = 14122496 samples = 24017.9 CDDA sectors
File Size : 13.0M
Bit Rate : 324k
Sample Encoding: MPEG audio (layer I, II or III)
Comments :
Title=Descent
Artist=Tomorrow's Outlook
Album=A Voice Unheard
Tracknumber=2/12
Year=2018



Register


Go to the top of the page
  Insert nick Quick quote
+Quote Post
post Apr 16 2018, 09:13:07
Post #2

Правь статус, ####!111
**************
Group: Металариец
Posts: 13,950
Releases: 9734
From: Г.Харьков
On Forums: 6 years 3 months
Thanks: 159782 time(s)
Unknown


Register


Thanks:
Go to the top of the page
  Insert nick Quick quote
+Quote Post

Reply to this topicStart new topic
1 User(s) are reading this topic (1 Guests and 0 Anonymous Users)
0 Members:

 



- Lo-Fi Version Support form
Copyrights and abuse reports form
Time is now: 21st August 2018 - 07:11:55