Welcome Guest ( Log In | Register )

> Strunkiin - The Joy Of Creation (2018), Atmospheric Black Metal
post Apr 16 2018, 07:44:35
Post #1

Аннигилятор пивА
Group Icon
Group: V.I.P
Posts: 50,866
Releases: 15870
From: Koenigsberg - TILZIT
On Forums: 12 years 6 months
Thanks: 346214 time(s)
Russian Federation


(IMG:https://metalarea.org/images/audiocovers/2018_Apr/acov_tid304726_thumb.jpg)

*Artist: Strunkiin
*Album: The Joy Of Creation
*Year: 2018
*Genre: Atmospheric Black Metal
*Country: Finland (IMG:https://metalarea.org/forum/style_images/flags/Finland.png)
*Format: mp3@CBR320kbps
*Size: 106MB

Tracklist:
1. Island in the Wilderness 08:01
2. Northern Lights 10:19
3. Blue Ridge Falls 09:15
4. Crimson Tide 09:30
5. Wilderness Day 11:26
******************************
Total playing time: 48:31



Extended info
Melodic metal of varying styles, predominantly atmospheric black metal. Evolving soundscapes, with great emphasis on melodies, atmosphere and dynamics.


Technical info
(IMG:https://metalarea.org/images/spectrogram/2018_Apr/76e97a4c6371594874100ce102e32b94.png)
Input File: 03 - Blue Ridge Falls.mp3
Channels : 2
Sample Rate : 44100
Precision : 16-bit
Duration : 00:09:15.68 = 24505356 samples = 41675.8 CDDA sectors
File Size : 22.2M
Bit Rate : 320k
Sample Encoding: MPEG audio (layer I, II or III)



Register


Go to the top of the page
  Insert nick Quick quote
+Quote Post
 
Start new topic
Replies (1 - 2)
post Apr 16 2018, 21:28:52
Post #2

Аннигилятор пивА
Group Icon
Group: V.I.P
Posts: 50,866
Releases: 15870
From: Koenigsberg - TILZIT
On Forums: 12 years 6 months
Thanks: 346214 time(s)
Russian Federation


MIRROR
Register


Go to the top of the page
  Insert nick Quick quote
+Quote Post
post Apr 18 2018, 19:30:40
Post #3

Group: Подсевший
Posts: 24
Releases: 0
On Forums: 1 year 7 months
Thanks: 0 time(s)
Russian Federation


Почему не распаковывается?
Go to the top of the page
  Insert nick Quick quote
+Quote Post

Reply to this topicStart new topic
1 User(s) are reading this topic (1 Guests and 0 Anonymous Users)
0 Members:

 



- Lo-Fi Version Support form
Copyrights and abuse reports form
Time is now: 17th December 2018 - 03:28:42