Welcome Guest ( Log In | Register )

 
Reply to this topicStart new topic
> BloodKlot - BloodKlot (2012), Old School Death Metal
post Apr 16 2018, 10:26:40
Post #1

Аннигилятор пивА
Group Icon
Group: V.I.P
Posts: 50,866
Releases: 15870
From: Koenigsberg - TILZIT
On Forums: 12 years 6 months
Thanks: 346214 time(s)
Russian Federation


(IMG:https://metalarea.org/images/audiocovers/2018_Apr/acov_tid304728_thumb.jpg)

*Artist: BloodKlot
*Album: BloodKlot
*Year: 2012
*Genre: Old School Death Metal
*Country: Australia (IMG:https://metalarea.org/forum/style_images/flags/Australia.png)
*Format: mp3@CBR128kbps (IMG:https://metalarea.org/images/bit_low.gif)
*Size: 30MB

Tracklist:
1. Satanic War 00:54
2. Raped with a Pitchfork 02:58
3. Blast 02:45
4. Woah (That's Fucked) 00:06
5. What Cunt Fuck You 04:25
6. Brutal 03:30
7. 138 00:41
8. Life Will End 02:22
9. Slit Your Throat 02:13
10. Time to Die 02:53
11. Impaled by the Reaper 04:33
12. Flamethrower Massacre 03:46
13. Outro 00:45
******************************
Total playing time: 31:51



Extended info
BloodKlot's Debut Self-Titled album from August 2012. 13 tracks of brutal old school death metal for lovers of Six Feet Under and Obituary. A must have for any old school death metal collector.
Pelli - Bass
Rettsi - Drums (2009-present)
Mango - Guitars, Vocals (backing) (2009-present)
Shaneo - Guitars, Vocals (lead) (2009-present)


Technical info
(IMG:https://metalarea.org/images/spectrogram/2018_Apr/39a61e73542dd4abe0b6ca509b6241f9.png)
Input File: 02 Raped With A Pitchfork.mp3
Channels : 2
Sample Rate : 44100
Precision : 16-bit
Duration : 00:02:57.50 = 7827706 samples = 13312.4 CDDA sectors
File Size : 2.91M
Bit Rate : 131k
Sample Encoding: MPEG audio (layer I, II or III)
Comments :
Title=Raped With A Pitchfork
Artist=BloodKlot
Album=BloodKlot
Tracknumber=2
Year=2012
Genre=Brutal Death Metal



Register


Go to the top of the page
  Insert nick Quick quote
+Quote Post

Reply to this topicStart new topic
1 User(s) are reading this topic (1 Guests and 0 Anonymous Users)
0 Members:

 



- Lo-Fi Version Support form
Copyrights and abuse reports form
Time is now: 17th December 2018 - 03:42:54