Welcome Guest ( Log In | Register )

 
Reply to this topicStart new topic
> BloodKlot - Hantu [ep] (2014), Old School Death Metal
post Apr 16 2018, 10:27:23
Post #1

Аннигилятор пивА
Group Icon
Group: V.I.P
Posts: 48,076
Releases: 14582
From: Koenigsberg - TILZIT
On Forums: 12 years 2 months
Thanks: 321089 time(s)
Russian Federation


(IMG:https://metalarea.org/images/audiocovers/2018_Apr/acov_tid304729_thumb.jpg)

*Artist: BloodKlot
*Album: Hantu [ep]
*Year: 2014
*Genre: Old School Death Metal
*Country: Australia (IMG:https://metalarea.org/forum/style_images/flags/Australia.png)
*Format: mp3@CBR128kbps (IMG:https://metalarea.org/images/bit_low.gif)
*Size: 16MB

Tracklist:
1. Intro 00:52
2. Hantu Demon 04:56
3. Asylum of Lost Souls 03:31
4. Fuck Oath to the Durbs 02:54
5. Devouring the Dead 04:06
******************************
Total playing time: 16:19



Extended info
Pelli - Bass
Rettsi - Drums (2009-present)
Mango - Guitars, Vocals (backing) (2009-present)
Shaneo - Guitars, Vocals (lead) (2009-present)


Technical info
(IMG:https://metalarea.org/images/spectrogram/2018_Apr/2acead9fc5a117c8214c22c8804475de.png)
Input File: 02 Hantu Demon.mp3
Channels : 2
Sample Rate : 44100
Precision : 16-bit
Duration : 00:04:56.74 = 13086278 samples = 22255.6 CDDA sectors
File Size : 4.97M
Bit Rate : 134k
Sample Encoding: MPEG audio (layer I, II or III)
Comments :
Title=Hantu Demon
Artist=BloodKlot
Album=Hantu (EP)
Tracknumber=2
Year=2014
Genre=Brutal Death Metal



Register


Thanks:
(2) Rosen, varlam4,
Go to the top of the page
  Insert nick Quick quote
+Quote Post

Reply to this topicStart new topic
2 User(s) are reading this topic (2 Guests and 0 Anonymous Users)
0 Members:

 



- Lo-Fi Version Support form
Copyrights and abuse reports form
Time is now: 19th August 2018 - 04:33:02