Welcome Guest ( Log In | Register )

> Releases Upload / Добавление релизов

Добавить релиз тут / Click here to add release
Рекомендованные обменники / Recommended file shares

> Blackness - Sapienti Sat (2018), Melodic Death Metal (D6)
post Apr 16 2018, 10:49:51
Post #1

Семь Литров
*******
Group: Металариец
Posts: 769
Releases: 648
From: Новороссийск
On Forums: 6 years 11 months
Thanks: 10925 time(s)
Russian Federation


(IMG:https://metalarea.org/images/audiocovers/2018_Apr/acov_tid304730_thumb.jpg)

*Artist: Blackness
*Album: Sapienti Sat
*Year: 2018
*Genre: Melodic Death Metal
*Country: Russian Federation (IMG:https://metalarea.org/forum/style_images/flags/Russian%20Federation.png)
*Format: mp3@CBR320kbps
*Size: 108MB

Tracklist:
01. Всего Лишь Человек 01:48
02. Право Отрицать 04:27
03. Дар Змеи 04:47
04. Последний Вздох 04:50
05. In Articulo Mortis 03:03
06. Третий Призрак 05:26
07. Sapienti Sat 05:50
08. И Снова Свет 04:41
09. 13 03:29
10. Гений Пустоты 04:11
11. Уроборос 04:32
******************************
Total playing time: 47:04


Preview 2

Extended info
'Sapienti Sat' – концептуальный альбом, на котором все песни связаны между собой по сюжету. В центре сюжета находится персонаж, не принявший общепринятую человеческую мораль, считая её лживой и недостойной разума, а также ценность человеческой жизни как таковой. Герой не считает себя мессией, наоборот – он ждёт, чтобы его ненавидели и отрицали, как он сам отрицает окружающий его мир. Он признает, что он и есть зло, беспричинное и немотивированное, и что та пустота, в которой он желает раствориться, отринув путы своей человеческой сущности, более жизнеспособна, чем связывающие условности ценностей своей телесной оболочки. Герой не выносит оценки своим действиям, но он считает, что для тех, кто сможет понять его идею, поступки и слова говорят сами за себя. Раскрытие тайн героя происходит на протяжении 11 песен. irond


Technical info
(IMG:https://metalarea.org/images/spectrogram/2018_Apr/ed92ad6876f94a0430811e342c37f898.png)
Input File: 02. Право Отрицать.mp3
Channels : 2
Sample Rate : 44100
Precision : 16-bit
Duration : 00:04:27.94 = 11816154 samples = 20095.5 CDDA sectors
File Size : 10.7M
Bit Rate : 320k
Sample Encoding: MPEG audio (layer I, II or III)
Comments :
Title=Право Отрицать
Artist=Blackness
Album=Sapienti Sat
Tracknumber=02
Year=2018
Genre=Death Metal



Register


Вернуться к началу страницы
  Insert nick Quick quote
+Цитировать сообщение
 
Создать новую тему
Replies (1 - 4)
post Apr 16 2018, 19:48:10
Post #2

Маньяк
**********
Group: Металариец
Posts: 1,469
Releases: 23
From: Spain
On Forums: 10 years 7 months
Thanks: 1108 time(s)
Spain


QUOTE
Вернуться к началу страницы
  Insert nick Quick quote
+Цитировать сообщение
post Apr 16 2018, 22:14:38
Post #3

Семь Литров
*******
Group: Металариец
Posts: 769
Releases: 648
From: Новороссийск
On Forums: 6 years 11 months
Thanks: 10925 time(s)
Russian Federation


FLAC -365mb
Вернуться к началу страницы
  Insert nick Quick quote
+Цитировать сообщение
post Apr 17 2018, 20:59:15
Post #4

Два Литра
**
Group: Завсегдатай
Posts: 140
Releases: 0
From: Москва
On Forums: 9 years 7 months
Thanks: 8 time(s)
Russian Federation


школота какая то, даже не...цитирую... "третьесорт"
Вернуться к началу страницы
  Insert nick Quick quote
+Цитировать сообщение
post Today, 10:08:42
Post #5

Перевозчик
**************
Group: Металариец
Posts: 2,697
Releases: 0
On Forums: 9 years 9 months
Thanks: 538 time(s)
Russian Federation


Скучно.
Вернуться к началу страницы
  Insert nick Quick quote
+Цитировать сообщение

ОтветитьСоздать новую тему
3 User(s) are reading this topic (3 Guests and 0 Anonymous Users)
0 Members:

 



- Lo-Fi Version Support form
Copyrights and abuse reports form
Time is now: 21st April 2018 - 10:38:34