Welcome Guest ( Log In | Register )

> Releases Upload / Добавление релизов

Добавить релиз тут / Click here to add release
Рекомендованные обменники / Recommended file shares

 
ОтветитьСоздать новую тему
> Disinterested Handjob - Quick, Somebody Teach That Kid How To Use A Belt [single] (2018), Grindcore (D36)
post Apr 16 2018, 11:07:47
Post #1

Serial Uploader
Group Icon
Group: V.I.P
Posts: 32,071
Releases: 30386
From: Lithuania
On Forums: 9 years 10 months
Thanks: 349657 time(s)
Lithuania


(IMG:https://metalarea.org/images/audiocovers/2018_Apr/acov_tid304731_thumb.jpg)

*Artist: Disinterested Handjob
*Album: Quick, Somebody Teach That Kid How To Use A Belt [single]
*Year: 2018
*Genre: Grindcore
*Country: Australia (IMG:https://metalarea.org/forum/style_images/flags/Australia.png)
*Format: mp3@CBR320kbps
*Size: 3MB

Tracklist:
01. Quick, Somebody Teach That Kid How To Use A Belt 00:37
02. Slow News Hour 00:39
******************************
Total playing time: 1:16




Technical info
(IMG:https://metalarea.org/images/spectrogram/2018_Apr/f8ec327827b6aab6ebba93d71b8a2dad.png)
Input File: 02. Slow News Hour.mp3
Channels : 2
Sample Rate : 44100
Precision : 16-bit
Duration : 00:00:39.97 = 1762721 samples = 2997.82 CDDA sectors
File Size : 1.72M
Bit Rate : 344k
Sample Encoding: MPEG audio (layer I, II or III)
Comments :
Title=Slow News Hour
Artist=Disinterested Handjob
Album=Quick, Somebody Teach That Kid How To Use A Belt single
Tracknumber=2
Year=2018



Register


Thanks:
(1) Rosen,
Вернуться к началу страницы
  Insert nick Quick quote
+Цитировать сообщение

ОтветитьСоздать новую тему
1 User(s) are reading this topic (1 Guests and 0 Anonymous Users)
0 Members:

 



- Lo-Fi Version Support form
Copyrights and abuse reports form
Time is now: 21st April 2018 - 10:44:58