Welcome Guest ( Log In | Register )

 
Reply to this topicStart new topic
> Fere - Montedor (2018), Instrumental Sludge/Post-Metal
post Apr 16 2018, 12:16:03
Post #1

Serial Uploader
Group Icon
Group: V.I.P
Posts: 33,063
Releases: 31348
From: Lithuania
On Forums: 10 years 3 months
Thanks: 358607 time(s)
Lithuania


(IMG:https://metalarea.org/images/audiocovers/2018_Apr/acov_tid304732_thumb.jpg)

*Artist: Fere
*Album: Montedor
*Year: 2018
*Genre: Instrumental Sludge/Post-Metal
*Country: Portugal (IMG:https://metalarea.org/forum/style_images/flags/Portugal.png)
*Format: mp3@CBR320kbps
*Size: 124MB

Tracklist:
01. Bárbara 07:09
02. Fundo 06:40
03. Algae 08:14
04. Areia 05:37
05. Naufrágio 07:37
06. Pontus 06:47
07. Montedor 12:46
******************************
Total playing time: 54:50




Technical info
(IMG:https://metalarea.org/images/spectrogram/2018_Apr/076f7ead8f22c7cb54754990a9ccb9a1.png)
Input File: 02. Fundo.mp3
Channels : 2
Sample Rate : 44100
Precision : 16-bit
Duration : 00:06:40.86 = 17678058 samples = 30064.7 CDDA sectors
File Size : 16.0M
Bit Rate : 320k
Sample Encoding: MPEG audio (layer I, II or III)
Comments :
Title=Fundo
Artist=Fere
Album=Montedor
Tracknumber=2/7
Year=2018
Genre=Metal
Discnumber=1/1



Register


Thanks:
Go to the top of the page
  Insert nick Quick quote
+Quote Post

Reply to this topicStart new topic
1 User(s) are reading this topic (1 Guests and 0 Anonymous Users)
0 Members:

 



- Lo-Fi Version Support form
Copyrights and abuse reports form
Time is now: 22nd September 2018 - 03:59:15