Welcome Guest ( Log In | Register )

> Overwind - I Can Do It Again (2018), Progressive/Heavy Metal
post Apr 16 2018, 12:23:16
Post #1

Serial Uploader
Group Icon
Group: V.I.P
Posts: 32,863
Releases: 31159
From: Lithuania
On Forums: 10 years 1 month
Thanks: 356948 time(s)
Lithuania


(IMG:https://metalarea.org/images/audiocovers/2018_Apr/acov_tid304733_thumb.jpg)

*Artist: Overwind
*Album: I Can Do It Again
*Year: 2018
*Genre: Progressive/Heavy Metal
*Country: Russian Federation (IMG:https://metalarea.org/forum/style_images/flags/Russian%20Federation.png)
*Format: mp3@CBR320kbps
*Size: 109MB

Tracklist:
01. Labyrinth
02. Night Rider
03. I Can Do It Again
04. Sleepwalker
05. In Vino Veritas
06. Dancing Spirits
07. One More Day
08. Blackout
09. Devil' Game
10. Get Over Crisis
11. Time Forward
******************************
Total playing time: 47:37



Technical info
(IMG:https://metalarea.org/images/spectrogram/2018_Apr/2c869974b539b324cf6a1085b41cd5f3.png)
Input File: 02. Night Rider.mp3
Channels : 2
Sample Rate : 44100
Precision : 16-bit
Duration : 00:04:46.12 = 12618024 samples = 21459.2 CDDA sectors
File Size : 11.4M
Bit Rate : 320k
Sample Encoding: MPEG audio (layer I, II or III)
Comments :
Title=Night Rider
Artist=Overwind
Album=I Can Do It Again
Tracknumber=2/11
Year=2018



Register


Go to the top of the page
  Insert nick Quick quote
+Quote Post
 
Start new topic
Replies (1 - 6)
post Apr 16 2018, 18:23:28
Post #2

Мегаманьяк
***********
Group: Металариец
Posts: 1,741
Releases: 0
From: Мытищи
On Forums: 10 years 4 months
Thanks: 971 time(s)
Russian Federation


Довольно интересная и современно звучащая Краснодарская группа.
Про стиль спорить не буду, тут каждый для себя сам определит)
Сайт: http://overwind.ru/

Пара песен для ознакомления:
Register


Thanks:
Go to the top of the page
  Insert nick Quick quote
+Quote Post
post Apr 17 2018, 13:57:34
Post #3

тебе 27, а ты все реверсами балуешься
**********
Group: Металариец
Posts: 1,369
Releases: 4
From: SPB
On Forums: 9 years 11 months
Thanks: 343 time(s)
Russian Federation


И правда, музыка очень приятная и интересная, в то же время слушается очень легко (IMG:style_emoticons/default/20.gif)

Превью: https://vk.com/overwind
Go to the top of the page
  Insert nick Quick quote
+Quote Post
post Apr 19 2018, 19:36:31
Post #4

21st Century Schizoid Man
**************
Group: Металариец
Posts: 5,159
Releases: 67
From: Moscow
On Forums: 10 years 2 months
Thanks: 4074 time(s)
Russian Federation


Хороший альбом. Приятный вокал, нормальное (не совецкое) произношение, интересный материал.
Определение стиля вопросов не вызывает.


Thanks:
(1) Foneg,
Go to the top of the page
  Insert nick Quick quote
+Quote Post
post Apr 27 2018, 13:20:50
Post #5

тебе 27, а ты все реверсами балуешься
**********
Group: Металариец
Posts: 1,369
Releases: 4
From: SPB
On Forums: 9 years 11 months
Thanks: 343 time(s)
Russian Federation


ЦИТАТА(Yarri @ Apr 19 2018, 21:36:31) *
Хороший альбом. Приятный вокал, нормальное (не совецкое) произношение, интересный материал.
Определение стиля вопросов не вызывает.


Сами о себе пишут Модерн метал, что, на мой взгляд, тоже нормально подходит.
Go to the top of the page
  Insert nick Quick quote
+Quote Post
post Apr 27 2018, 13:22:50
Post #6

21st Century Schizoid Man
**************
Group: Металариец
Posts: 5,159
Releases: 67
From: Moscow
On Forums: 10 years 2 months
Thanks: 4074 time(s)
Russian Federation


Foneg,
Пусть пишут. Модерновых штучек они практически не используют.
Go to the top of the page
  Insert nick Quick quote
+Quote Post
post Apr 27 2018, 15:52:50
Post #7

Мегаманьяк
***********
Group: Металариец
Posts: 1,741
Releases: 0
From: Мытищи
On Forums: 10 years 4 months
Thanks: 971 time(s)
Russian Federation


ЦИТАТА(Foneg @ Apr 27 2018, 15:20:50) *
Сами о себе пишут Модерн метал, что, на мой взгляд, тоже нормально подходит.

Вот мне тоже показалось, что есть он здесь, модерн. Просто меня это абсолютно не смущает, если в целом всё ок)
Go to the top of the page
  Insert nick Quick quote
+Quote Post

Reply to this topicStart new topic
1 User(s) are reading this topic (1 Guests and 0 Anonymous Users)
0 Members:

 



- Lo-Fi Version Support form
Copyrights and abuse reports form
Time is now: 21st July 2018 - 00:56:12